img image001 image001 image001 image001 image001 image001 image001 image001 image001 image001 image001 image001 image001 image001 image001

Planets Sun Sun Sun
Статистика раздачи
Автор: Nickolas3434 | Размер: 1.59 ГБ | Добавлен: 24 мар 2016
Раздают: 2    Качают: 16
Скачать торрент
Скачать торрент
Описание торрента

СообщениеДобавлено: 24 мар 2016 


Информация о фильме
Название: Спектакль - Возвращение в Хатынь
Год выхода: 1984
Жанр: трагедия
Режиссер: Борис Луценко
В ролях:
Флориан Петрович Гайшун — Эдуард Горячий
Женщина — Светлана Кузьмина
Флера — Алексей Колокольцев
Глаша — Валерия Лиходей
Косач — Иван Мацкевич
Сапер — Анатолий Котенев
Рубеж — Владимир Сичкарь
Немец — Юрий Ступаков
Полицай — Пётр Юрченков
В эпизодах — Владимир Грицевский, Александр Кашперов, Александр Суцковер, Галина Волчек, Н. Кастусик, Тамара Пузиновская, Арнольд Помазан, А. Скиданов, Михаил Жиров, Нинель Жуковская, Александра Зимина, Лидия Мордачева, Галина Кухальская, Л. Немогай, Е. Лучинина
О фильме:
Фильм-спектакль по мотивам повести Алеся Адамовича «Хатынская повесть».
Фильм-спектакль создан на основе одноименного спектакля Национального академического драматического театра имени Максима Горького.
«Возвращение в Хатынь» - основан на документах, реальных впечатлениях и рассказах свидетелей трагедии тысяч белорусских деревень, в которых фашисты делали неимоверные зверства, — это спектакль о силе человеческого духа, спектакль-предупреждение...
Доп. информация:
Сценарий — Алесь Адамович, Борис Луценко
Оператор-постановщик — Владимир Пронько
Художник-постановщик — Вилорий Козлов
Режиссёр — Юрий Хащеватский
Оператор — В. Леонович
Композитор — Александр Ренанский
Звукооператор — Л. Зиновьева
Костюмы — Ф. Лебедь
Грим — Н. Рожков
Ассистенты режиссёра — А. Баранов, Н. Харкевич
Мастер по свету — Г. Сакович
Благодарность: Bartimeyse за оказанную помощь с данной раздачей и другими.
За что ему большое спасибо!

Запись потока *.ts с наземного цифрового телеканала "Беларусь 3", ремукс в *.mkv программой VideoReDo.
Страна: Белорусская ССР
Студия: Белтелефильм
Продолжительность: 00:47:00 + 00:43:47
Перевод: не требует
Файл
Кодек: AVC (H264)
Качество: VHSRip
Видео 1: AVC (H264), 720x576 (4:3), 25 fps, 2 206 Kbps
Видео 2: AVC (H264), 720x576 (4:3), 25 fps, 2 205 Kbps
Звук: MP2, 256 kbps, 2 channels, 48 kHz
Семпл
Код:
General
Unique ID                      : 182407312562562275634114533208203460925 (0x893A5EDB5003D7E89D253AF80B7C013D)
Complete name                  : D:Новая  земля 2ТелеспектаклиВозвращение в Хатынь (1984)Возвращение в Хатынь (1984)Возвращение в Хатынь_01_(1984).mkv
Format                         : Matroska
Format version                 : Version 2
File size                      : 844 MiB
Duration                       : 47mn 0s
Overall bit rate               : 2 512 Kbps
Writing application            : Lavf52.64.2
Writing library                : Lavf52.64.2
Video
ID                             : 1
Format                         : AVC
Format/Info                    : Advanced Video Codec
Format profile                 : Main@L3.0
Format settings, CABAC         : Yes
Format settings, ReFrames      : 4 frames
Format settings, GOP           : M=4, N=24
Codec ID                       : V_MPEG4/ISO/AVC
Duration                       : 47mn 0s
Bit rate                       : 2 206 Kbps
Width                          : 720 pixels
Height                         : 576 pixels
Display aspect ratio           : 4:3
Original display aspect ratio  : 4:3
Frame rate mode                : Constant
Frame rate                     : 25.000 fps
Standard                       : PAL
Color space                    : YUV
Chroma subsampling             : 4:2:0
Bit depth                      : 8 bits
Scan type                      : MBAFF
Scan order                     : Top Field First
Bits/(Pixel*Frame)             : 0.213
Stream size                    : 742 MiB (88%)
Default                        : Yes
Forced                         : No
Color primaries                : BT.601 PAL
Transfer characteristics       : BT.470 System B, BT.470 System G
Matrix coefficients            : BT.601
Color range                    : Limited
Audio
ID                             : 2
Format                         : MPEG Audio
Format version                 : Version 1
Format profile                 : Layer 2
Codec ID                       : A_MPEG/L2
Codec ID/Hint                  : MP2
Duration                       : 47mn 0s
Bit rate mode                  : Constant
Bit rate                       : 256 Kbps
Channel(s)                     : 2 channels
Sampling rate                  : 48.0 KHz
Compression mode               : Lossy
Stream size                    : 86.1 MiB (10%)
Language                       : English
Default                        : Yes
Forced                         : No


Код:
General
Unique ID                      : 285145691633905840867770677318212692760 (0xD6851006C14EF8E4EF71520F0230AB18)
Complete name                  : D:Новая  земля 2ТелеспектаклиВозвращение в Хатынь (1984)Возвращение в Хатынь (1984)Возвращение в Хатынь_02_(1984).mkv
Format                         : Matroska
Format version                 : Version 2
File size                      : 786 MiB
Duration                       : 43mn 47s
Overall bit rate               : 2 511 Kbps
Writing application            : Lavf52.64.2
Writing library                : Lavf52.64.2
Video
ID                             : 1
Format                         : AVC
Format/Info                    : Advanced Video Codec
Format profile                 : Main@L3.0
Format settings, CABAC         : Yes
Format settings, ReFrames      : 4 frames
Format settings, GOP           : M=4, N=24
Codec ID                       : V_MPEG4/ISO/AVC
Duration                       : 43mn 47s
Bit rate                       : 2 205 Kbps
Width                          : 720 pixels
Height                         : 576 pixels
Display aspect ratio           : 4:3
Original display aspect ratio  : 4:3
Frame rate mode                : Constant
Frame rate                     : 25.000 fps
Standard                       : PAL
Color space                    : YUV
Chroma subsampling             : 4:2:0
Bit depth                      : 8 bits
Scan type                      : MBAFF
Scan order                     : Top Field First
Bits/(Pixel*Frame)             : 0.213
Stream size                    : 691 MiB (88%)
Default                        : Yes
Forced                         : No
Color primaries                : BT.601 PAL
Transfer characteristics       : BT.470 System B, BT.470 System G
Matrix coefficients            : BT.601
Color range                    : Limited
Audio
ID                             : 2
Format                         : MPEG Audio
Format version                 : Version 1
Format profile                 : Layer 2
Codec ID                       : A_MPEG/L2
Codec ID/Hint                  : MP2
Duration                       : 43mn 47s
Bit rate mode                  : Constant
Bit rate                       : 256 Kbps
Channel(s)                     : 2 channels
Sampling rate                  : 48.0 KHz
Compression mode               : Lossy
Stream size                    : 80.2 MiB (10%)
Language                       : English
Default                        : Yes
Forced                         : No
 




   Похожие торренты   Торрент   Размер 
В этой теме нет новых непрочитанных сообщений. Спектакль - Тартюф (2008) DVB-AVC от AND03AND

17 | 9

1.53 ГБ

В этой теме нет новых непрочитанных сообщений. Спектакль - Чайка (1999) DVB от AND03AND

12 | 34

3.4 ГБ

В этой теме нет новых непрочитанных сообщений. Спектакль - Всё в саду (1992) DVB от AND03AND

45 | 12

2.98 ГБ

В этой теме нет новых непрочитанных сообщений. Спектакль - Чудаки (2007) DVB от AND03AND

15 | 22

3.4 ГБ

В этой теме нет новых непрочитанных сообщений. Спектакль - Наедине со всеми (1993) DVB-AVC от AND03AND

14 | 7

1.62 ГБ

В этой теме нет новых непрочитанных сообщений. Спектакль - Извещение Марии (2007) DVB от AND03AND

23 | 10

3.71 ГБ

В этой теме нет новых непрочитанных сообщений. Спектакль - Валентинов день (2007) DVB от AND03AND

4 | 9

3.45 ГБ




Вы не можете начинать темы
Вы не можете отвечать на сообщения
Вы не можете редактировать свои сообщения
Вы не можете удалять свои сообщения
Вы не можете добавлять вложения

Перейти:  
Для Мосгорсуда, Роскомнадзора и рекламодателей: mosgorsud-torrent[собачка]yandex.ru
 Вход
ppkBB3cker v.2 © 2008-2014 @ PPK
[ Time : 0.042s | 15 Queries | GZIP : Off ]

Торрент трекер RUTOR.IN, Не можете зайти на rutor.org? Какой новый адрес рутор? Какое зеркало рутор? Не работает rutor.org и зеркала? Тогда наш торрент специально для вас. Rutor.in неофициальное зеркало rutor. В случае если у Вас заблокирован rutor или вдруг Вы не можете на него зайти, то Вы без труда сможете скачать бесплатно и без рекламы последние новинки кино, игр, сериалов и прочего у нас, на Rutor.in. Не нужно использовать прокси, чтобы зайти на рутор, достаточно воспользоваться нашим ресурсом. Все новые фильмы, игры, сериалы, книги и музыка за 2013 и 2014 годы через торрент бесплатно. Скачивайте фильмы в хорошем качестве, игры для пк, xbox, playstation без регистрации. У нас вы найдете новые Зарубежные сериалы и Русские сериалы 2013, 2014, 2015 годов. Оставайтесь с нами, качайте любимые фильмы, игры, сериалы, книги и музыку.
cron