img image001 image001 image001 image001 image001 image001 image001 image001 image001 image001 image001 image001 image001 image001 image001

Planets Sun Sun Sun
Статистика раздачи
Автор: Nickolas3434 | Размер: 1.1 ГБ | Добавлен: 24 мар 2016
Раздают: 80    Качают: 0
Скачать торрент
Скачать торрент
Описание торрента

СообщениеДобавлено: 24 мар 2016 

Бремя Цыган. Фильм Бориса Соболева


#77
Год выпуска: 2016
Страна: Россия | Россия HD
Жанр: Документальный
Продолжительность: 1:32:57
Автор, Ведущий и Режиссер: Борис Соболев

Описание: Сенсационный фильм Бориса Соболева о жизни цыганского народа, самого закрытого этноса на сегодняшний день. Влиятельные воровские кланы, бароны и наркобароны, ранние браки, артисты на сцене и в жизни, антицыганские бунты в Европе и цыганские бунты в России – вся правда о проблемах, горестях и радостях современной цыганской общины.

Автор рипа: lrn
Автор записи: Alexin29
Сэмпл: sendfile

Тип релиза: HDTVRip-AVC
Контейнер: MKV
Видео: 1024x576 (16:9), 25,000 fps, H264, ~1500 kbps avg, ~0.102 bit/pixel
Аудио: 48 kHz, AC3 Dolby Digital, 2/0 (L,R) ch, ~192.00 kbps avg

General
Unique ID : 205241050925121761835376980829154626031 (0x9A67FD138A755DC68B3E8F9CBEB0C9EF)
Complete name : E:uTorrent.TempTempBremya.Tsygan.2016.HDTVRip-AVC.x264-lrn.mkv
Format : Matroska
Format version : Version 4 / Version 2
File size : 1.10 GiB
Duration : 1h 32mn
Overall bit rate : 1 694 Kbps
Movie name : Bremya.Tsygan.2016.HDTVRip-AVC.x264-lrn
Encoded date : UTC 2010-02-22 21:41:31
Writing application : mkvmerge v5.9.0 ('On The Loose') built on Dec 9 2012 15:37:01
Writing library : libebml v1.3.0 + libmatroska v1.4.0
Video
ID : 1
Format : AVC
Format/Info : Advanced Video Codec
Format profile : High@L4.1
Format settings, CABAC : Yes
Format settings, ReFrames : 8 frames
Codec ID : V_MPEG4/ISO/AVC
Duration : 1h 32mn
Bit rate : 1 500 Kbps
Width : 1 024 pixels
Height : 576 pixels
Display aspect ratio : 16:9
Frame rate mode : Constant
Frame rate : 25.000 fps
Color space : YUV
Chroma subsampling : 4:2:0
Bit depth : 8 bits
Scan type : Progressive
Bits/(Pixel*Frame) : 0.102
Stream size : 976 MiB (87%)
Writing library : x264 core 142 r2479 dd79a61
Encoding settings : cabac=1 / ref=8 / deblock=1:-3:-3 / analyse=0x3:0x133 / me=umh / subme=9 / psy=1 / psy_rd=1.00:0.00 / mixed_ref=1 / me_range=32 / chroma_me=1 / trellis=2 / 8x8dct=1 / cqm=0 / deadzone=21,11 / fast_pskip=1 / chroma_qp_offset=-2 / threads=12 / lookahead_threads=2 / sliced_threads=0 / nr=0 / decimate=1 / interlaced=0 / bluray_compat=0 / constrained_intra=0 / bframes=8 / b_pyramid=2 / b_adapt=2 / b_bias=0 / direct=3 / weightb=1 / open_gop=0 / weightp=2 / keyint=250 / keyint_min=25 / scenecut=40 / intra_refresh=0 / rc_lookahead=50 / rc=2pass / mbtree=1 / bitrate=1500 / ratetol=1.0 / qcomp=0.60 / qpmin=0 / qpmax=69 / qpstep=4 / cplxblur=20.0 / qblur=0.5 / vbv_maxrate=62500 / vbv_bufsize=78125 / nal_hrd=none / filler=0 / ip_ratio=1.40 / aq=1:1.00
Default : Yes
Forced : No
Color range : Limited
Color primaries : BT.709
Transfer characteristics : BT.709
Matrix coefficients : BT.709
Audio
ID : 2
Format : AC-3
Format/Info : Audio Coding 3
Mode extension : CM (complete main)
Format settings, Endianness : Big
Codec ID : A_AC3
Duration : 1h 32mn
Bit rate mode : Constant
Bit rate : 192 Kbps
Channel(s) : 2 channels
Channel positions : Front: L R
Sampling rate : 48.0 KHz
Frame rate : 31.250 fps (1536 spf)
Compression mode : Lossy
Stream size : 128 MiB (11%)
Language : Russian
Default : Yes
Forced : No
raw [info]: 1024x576p 1:1 @ 25/1 fps (cfr)
x264 [info]: using SAR=1/1
x264 [info]: using cpu capabilities: MMX2 SSE2Fast SSSE3 SSE4.2 AVX
x264 [info]: profile High, level 4.1
x264 [info]: frame I:1470 Avg QP:19.14 size: 55819
x264 [info]: frame P:38843 Avg QP:22.40 size: 15006
x264 [info]: frame B:99123 Avg QP:25.90 size: 3842
x264 [info]: consecutive B-frames: 3.7% 6.0% 10.3% 63.0% 8.5% 6.3% 0.9% 1.1% 0.2%
x264 [info]: mb I I16..4: 6.4% 82.1% 11.6%
x264 [info]: mb P I16..4: 3.3% 12.7% 1.0% P16..4: 43.7% 13.5% 10.0% 0.2% 0.0% skip:15.5%
x264 [info]: mb B I16..4: 0.3% 1.2% 0.1% B16..8: 33.6% 5.8% 1.3% direct: 3.3% skip:54.4% L0:38.9% L1:49.8% BI:11.3%
x264 [info]: 8x8 transform intra:75.4% inter:73.6%
x264 [info]: direct mvs spatial:97.5% temporal:2.5%
x264 [info]: coded y,uvDC,uvAC intra: 64.4% 66.8% 23.5% inter: 14.1% 15.2% 0.6%
x264 [info]: i16 v,h,dc,p: 25% 19% 7% 50%
x264 [info]: i8 v,h,dc,ddl,ddr,vr,hd,vl,hu: 15% 11% 6% 7% 11% 13% 12% 12% 13%
x264 [info]: i4 v,h,dc,ddl,ddr,vr,hd,vl,hu: 17% 10% 4% 7% 13% 15% 13% 10% 11%
x264 [info]: i8c dc,h,v,p: 34% 26% 22% 18%
x264 [info]: Weighted P-Frames: Y:3.6% UV:1.1%
x264 [info]: ref P L0: 56.3% 14.4% 15.5% 3.8% 3.5% 2.3% 2.4% 1.5% 0.2% 0.0%
x264 [info]: ref B L0: 87.1% 7.3% 2.5% 1.2% 0.8% 0.6% 0.3%
x264 [info]: ref B L1: 96.9% 3.1%
x264 [info]: kb/s:1500.05
encoded 139436 frames, 25.23 fps, 1500.05 kb/s



   Похожие торренты   Торрент   Размер 
В этой теме нет новых непрочитанных сообщений. Бремя Цыган. Фильм Бориса Соболева (2016) HDTVRip 720p

21 | 2

2.72 ГБ

В этой теме нет новых непрочитанных сообщений. Бремя новостей [23.10] (2016) WEBRip 720p

1 | 3

719.02 МБ

В этой теме нет новых непрочитанных сообщений. Бремя новостей [28.08] (2016) WEBRip 720p

9 | 1

698.04 МБ

В этой теме нет новых непрочитанных сообщений. Фильм, фильм, фильм. Сборник мультфильмов (1968-1995) DVDRip

49 | 8

873.29 МБ

В этой теме нет новых непрочитанных сообщений. Соболева Н.А. - Cтаринные гербы российских городов (1986) PDF от RG Superdetki

8 | 2

39.91 МБ

В этой теме нет новых непрочитанных сообщений. Преображенцы. Фильм Аркадия Мамонтова (2016) HDTVRip-AVC

155 | 0

539.31 МБ

В этой теме нет новых непрочитанных сообщений. Путь Христа. Документальный Фильм (2016) HDTVRip-AVC

17 | 0

1.1 ГБ




Вы не можете начинать темы
Вы не можете отвечать на сообщения
Вы не можете редактировать свои сообщения
Вы не можете удалять свои сообщения
Вы не можете добавлять вложения

Перейти:  
Для Мосгорсуда, Роскомнадзора и рекламодателей: mosgorsud-torrent[собачка]yandex.ru
 Вход
ppkBB3cker v.2 © 2008-2014 @ PPK
[ Time : 0.034s | 15 Queries | GZIP : Off ]

Торрент трекер RUTOR.IN, Не можете зайти на rutor.org? Какой новый адрес рутор? Какое зеркало рутор? Не работает rutor.org и зеркала? Тогда наш торрент специально для вас. Rutor.in неофициальное зеркало rutor. В случае если у Вас заблокирован rutor или вдруг Вы не можете на него зайти, то Вы без труда сможете скачать бесплатно и без рекламы последние новинки кино, игр, сериалов и прочего у нас, на Rutor.in. Не нужно использовать прокси, чтобы зайти на рутор, достаточно воспользоваться нашим ресурсом. Все новые фильмы, игры, сериалы, книги и музыка за 2013 и 2014 годы через торрент бесплатно. Скачивайте фильмы в хорошем качестве, игры для пк, xbox, playstation без регистрации. У нас вы найдете новые Зарубежные сериалы и Русские сериалы 2013, 2014, 2015 годов. Оставайтесь с нами, качайте любимые фильмы, игры, сериалы, книги и музыку.