img image001 image001 image001 image001 image001 image001 image001 image001 image001 image001 image001 image001 image001 image001 image001

Planets Sun Sun Sun
Статистика раздачи
Автор: Nickolas3434 | Размер: 1.64 ГБ | Добавлен: 29 мар 2016
Раздают: 0    Качают: 0
Скачать торрент
Скачать торрент
Описание торрента

СообщениеДобавлено: 29 мар 2016 

Мастроянни - Идеальный Итальянец / Mastroianni, The Ideal Italian


#77
Дата/Год выпуска: 2015
Страна: Италия | Франция | PROGRAM33 | Arte France
Жанр: Документальный
Продолжительность: 0:53:28
Перевод: Профессиональный (многоголосый закадровый) | "Первый Канал"
Режиссер: Эммануэль Нобекур / Emmanuelle Nobécourt

Описание: Марчелло Мастроянни был золотым мальчиком итальянского кино и актером с длинной плодотворной карьерой, охватившей 50 лет и 160 фильмов, среди которых были прекрасные фильмы, украшавшие серебряный экран. В 1960 году начинается новый этап в творческой карьере Марчелло Мастроянни – его приглашает сам Федерико Феллини в свой фильм «Сладкая жизнь» («La Dolce Vita») на роль светского журналиста-интеллектуала Гвидо Ансельми.

Автор рипа: lrn
Автор записи: Alexin29
Сэмпл: sendfile

Тип релиза: HDTVRip 720p
Контейнер: MKV
Видео: 1280x720 (1.85:1), 25,000 fps, H264, ~4000 kbps avg, ~0.182 bit/pixel
Аудио: 48 kHz, AC3 Dolby Digital, 3/2 (L,C,R,l,r) + LFE ch, ~384.00 kbps avg

General
Unique ID : 178544497980778175101380744167617372821 (0x86526B64CA20E7589EEC316B80F6A295)
Complete name : E:uTorrent.TempTempMastroianni.The.Ideal.Italian.2015.HDTVRip.720p.x264-RUS-lrn.mkv
Format : Matroska
Format version : Version 4 / Version 2
File size : 1.64 GiB
Duration : 53mn 28s
Overall bit rate : 4 386 Kbps
Movie name : Mastroianni.The.Ideal.Italian.2015.HDTVRip.720p.x264-RUS-lrn
Encoded date : UTC 2010-02-22 21:41:31
Writing application : mkvmerge v5.9.0 ('On The Loose') built on Dec 9 2012 15:37:01
Writing library : libebml v1.3.0 + libmatroska v1.4.0
Video
ID : 1
Format : AVC
Format/Info : Advanced Video Codec
Format profile : High@L4.1
Format settings, CABAC : Yes
Format settings, ReFrames : 8 frames
Codec ID : V_MPEG4/ISO/AVC
Duration : 53mn 28s
Bit rate : 4 000 Kbps
Width : 1 280 pixels
Height : 720 pixels
Display aspect ratio : 16:9
Frame rate mode : Constant
Frame rate : 25.000 fps
Color space : YUV
Chroma subsampling : 4:2:0
Bit depth : 8 bits
Scan type : Progressive
Bits/(Pixel*Frame) : 0.174
Stream size : 1.46 GiB (89%)
Writing library : x264 core 148 r2638 7599210
Encoding settings : cabac=1 / ref=8 / deblock=1:-3:-3 / analyse=0x3:0x133 / me=umh / subme=9 / psy=1 / psy_rd=1.00:0.00 / mixed_ref=1 / me_range=32 / chroma_me=1 / trellis=2 / 8x8dct=1 / cqm=0 / deadzone=21,11 / fast_pskip=1 / chroma_qp_offset=-2 / threads=12 / lookahead_threads=2 / sliced_threads=0 / nr=0 / decimate=1 / interlaced=0 / bluray_compat=0 / constrained_intra=0 / bframes=8 / b_pyramid=2 / b_adapt=2 / b_bias=0 / direct=3 / weightb=1 / open_gop=0 / weightp=2 / keyint=250 / keyint_min=25 / scenecut=40 / intra_refresh=0 / rc_lookahead=50 / rc=2pass / mbtree=1 / bitrate=4000 / ratetol=1.0 / qcomp=0.60 / qpmin=0 / qpmax=69 / qpstep=4 / cplxblur=20.0 / qblur=0.5 / vbv_maxrate=62500 / vbv_bufsize=78125 / nal_hrd=none / filler=0 / ip_ratio=1.40 / aq=1:1.00
Default : Yes
Forced : No
Statistics Tags Issue : mkvmerge v8.5.2 ('Crosses') 32bit 2016-03-28 08:10:43 / mkvmerge v5.9.0 ('On The Loose') built on Dec 9 2012 15:37:01 2010-02-22 21:41:31
FromStats_BitRate : 4000291
FromStats_Duration : 00:53:28.680000000
FromStats_FrameCount : 80217
FromStats_StreamSize : 1604456787
Audio
ID : 2
Format : AC-3
Format/Info : Audio Coding 3
Mode extension : CM (complete main)
Format settings, Endianness : Big
Codec ID : A_AC3
Duration : 53mn 28s
Bit rate mode : Constant
Bit rate : 384 Kbps
Channel(s) : 6 channels
Channel positions : Front: L C R, Side: L R, LFE
Sampling rate : 48.0 KHz
Frame rate : 31.250 fps (1536 spf)
Compression mode : Lossy
Stream size : 147 MiB (9%)
Language : Russian
Default : Yes
Forced : No
raw [info]: 1280x720p 1:1 @ 25/1 fps (cfr)
x264 [info]: using SAR=1/1
x264 [info]: using cpu capabilities: MMX2 SSE2Fast SSSE3 SSE4.2 AVX
x264 [info]: profile High, level 4.1
x264 [info]: frame I:538 Avg QP:13.70 size:113569
x264 [info]: frame P:20627 Avg QP:16.74 size: 37411
x264 [info]: frame B:59052 Avg QP:19.12 size: 13068
x264 [info]: consecutive B-frames: 2.0% 4.5% 5.5% 66.2% 6.5% 11.8% 0.8% 2.3% 0.3%
x264 [info]: mb I I16..4: 8.8% 77.6% 13.6%
x264 [info]: mb P I16..4: 3.0% 13.2% 1.0% P16..4: 42.3% 20.7% 11.6% 0.3% 0.1% skip: 7.8%
x264 [info]: mb B I16..4: 0.3% 1.8% 0.1% B16..8: 34.9% 10.9% 2.3% direct: 8.9% skip:40.9% L0:42.0% L1:45.5% BI:12.6%
x264 [info]: 8x8 transform intra:77.7% inter:68.3%
x264 [info]: direct mvs spatial:98.3% temporal:1.7%
x264 [info]: coded y,uvDC,uvAC intra: 76.6% 64.7% 31.8% inter: 31.1% 25.7% 1.4%
x264 [info]: i16 v,h,dc,p: 67% 8% 5% 20%
x264 [info]: i8 v,h,dc,ddl,ddr,vr,hd,vl,hu: 13% 10% 8% 8% 12% 14% 12% 12% 12%
x264 [info]: i4 v,h,dc,ddl,ddr,vr,hd,vl,hu: 13% 9% 4% 8% 14% 15% 13% 11% 12%
x264 [info]: i8c dc,h,v,p: 38% 29% 22% 11%
x264 [info]: Weighted P-Frames: Y:6.3% UV:2.5%
x264 [info]: ref P L0: 50.7% 10.9% 16.5% 6.3% 5.0% 4.2% 3.6% 2.6% 0.3% 0.0%
x264 [info]: ref B L0: 78.2% 10.8% 4.7% 2.5% 1.9% 1.3% 0.7%
x264 [info]: ref B L1: 95.3% 4.7%
x264 [info]: kb/s:4000.29
encoded 80217 frames, 14.77 fps, 4000.29 kb/s



   Похожие торренты   Торрент   Размер 
В этой теме нет новых непрочитанных сообщений. Мастроянни - Идеальный Итальянец / Mastroianni, The Ideal Italian (2015) HDTVRip-AVC | P

22 | 0

721.32 МБ

В этой теме нет новых непрочитанных сообщений. Идеальный мужчина / Un homme idéal (2015) BDRip 720p | Р, A | Line

209 | 62

5.93 ГБ

В этой теме нет новых непрочитанных сообщений. Итальянец / The Italian (2004) DVDRip-AVC by FREEISLAND

16 | 4

1.5 ГБ

В этой теме нет новых непрочитанных сообщений. Идеальный мужчина / Un homme idéal (2015) HDRip | L1

2791 | 142

1.36 ГБ

В этой теме нет новых непрочитанных сообщений. Идеальный мужчина / Un homme idéal (2015) ВDRip | А

148 | 24

754.09 МБ

В этой теме нет новых непрочитанных сообщений. Идеальный мужчина / Un homme idéal (2015) HDRip | Алексеев

1349 | 97

1.38 ГБ

В этой теме нет новых непрочитанных сообщений. Идеальный мужчина / Un homme idéal (2015) HDRip | Line

26 | 4

2.04 ГБ




Вы не можете начинать темы
Вы не можете отвечать на сообщения
Вы не можете редактировать свои сообщения
Вы не можете удалять свои сообщения
Вы не можете добавлять вложения

Перейти:  
Для Мосгорсуда, Роскомнадзора и рекламодателей: mosgorsud-torrent[собачка]yandex.ru
 Вход
ppkBB3cker v.2 © 2008-2014 @ PPK
[ Time : 0.093s | 15 Queries | GZIP : Off ]

Торрент трекер RUTOR.IN, Не можете зайти на rutor.org? Какой новый адрес рутор? Какое зеркало рутор? Не работает rutor.org и зеркала? Тогда наш торрент специально для вас. Rutor.in неофициальное зеркало rutor. В случае если у Вас заблокирован rutor или вдруг Вы не можете на него зайти, то Вы без труда сможете скачать бесплатно и без рекламы последние новинки кино, игр, сериалов и прочего у нас, на Rutor.in. Не нужно использовать прокси, чтобы зайти на рутор, достаточно воспользоваться нашим ресурсом. Все новые фильмы, игры, сериалы, книги и музыка за 2013 и 2014 годы через торрент бесплатно. Скачивайте фильмы в хорошем качестве, игры для пк, xbox, playstation без регистрации. У нас вы найдете новые Зарубежные сериалы и Русские сериалы 2013, 2014, 2015 годов. Оставайтесь с нами, качайте любимые фильмы, игры, сериалы, книги и музыку.