img image001 image001 image001 image001 image001 image001 image001 image001 image001 image001 image001 image001 image001 image001 image001

Planets Sun Sun Sun
Статистика раздачи
Автор: Nickolas3434 | Размер: 721.32 МБ | Добавлен: 29 мар 2016
Раздают: 22    Качают: 0
Скачать торрент
Скачать торрент
Описание торрента

СообщениеДобавлено: 29 мар 2016 

Мастроянни - Идеальный Итальянец / Mastroianni, The Ideal Italian / Marcello Mastroianni - Ieri, Oggi, domani


#77
Дата/Год выпуска: 2015
Страна: Италия | Франция | PROGRAM33 | Arte France
Жанр: Документальный
Продолжительность: 0:53:28
Перевод: Профессиональный (многоголосый закадровый) | "Первый Канал"
Режиссер: Эммануэль Нобекур / Emmanuelle Nobécourt

Описание: Марчелло Мастроянни был золотым мальчиком итальянского кино и актером с длинной плодотворной карьерой, охватившей 50 лет и 160 фильмов, среди которых были прекрасные фильмы, украшавшие серебряный экран. В 1960 году начинается новый этап в творческой карьере Марчелло Мастроянни – его приглашает сам Федерико Феллини в свой фильм «Сладкая жизнь» («La Dolce Vita») на роль светского журналиста-интеллектуала Гвидо Ансельми.

Автор рипа: lrn
Автор записи: Alexin29
Сэмпл: sendfile

Тип релиза: HDTVRip-AVC
Контейнер: MKV
Видео: 1024x576 (16:9), 25,000 fps, H264, ~1500 kbps avg, ~0.105 bit/pixel
Аудио: 48 kHz, AC3 Dolby Digital, 3/2 (L,C,R,l,r) + LFE ch, ~384.00 kbps avg

General
Unique ID : 251131220460992083700452413539442177378 (0xBCEE1D1E6F10DE6DB7B1BC7A39573562)
Complete name : E:uTorrent.TempTempMastroianni.The.Ideal.Italian.2015.HDTVRip-AVC.x264-RUS-lrn.mkv
Format : Matroska
Format version : Version 4 / Version 2
File size : 721 MiB
Duration : 53mn 28s
Overall bit rate : 1 886 Kbps
Movie name : Mastroianni.The.Ideal.Italian.2015.HDTVRip-AVC.x264-RUS-lrn
Encoded date : UTC 2010-02-22 21:41:31
Writing application : mkvmerge v5.9.0 ('On The Loose') built on Dec 9 2012 15:37:01
Writing library : libebml v1.3.0 + libmatroska v1.4.0
Video
ID : 1
Format : AVC
Format/Info : Advanced Video Codec
Format profile : High@L4.1
Format settings, CABAC : Yes
Format settings, ReFrames : 8 frames
Codec ID : V_MPEG4/ISO/AVC
Duration : 53mn 28s
Bit rate : 1 500 Kbps
Width : 1 024 pixels
Height : 576 pixels
Display aspect ratio : 16:9
Frame rate mode : Constant
Frame rate : 25.000 fps
Color space : YUV
Chroma subsampling : 4:2:0
Bit depth : 8 bits
Scan type : Progressive
Bits/(Pixel*Frame) : 0.102
Stream size : 560 MiB (78%)
Writing library : x264 core 148 r2638 7599210
Encoding settings : cabac=1 / ref=8 / deblock=1:-3:-3 / analyse=0x3:0x133 / me=umh / subme=9 / psy=1 / psy_rd=1.00:0.00 / mixed_ref=1 / me_range=32 / chroma_me=1 / trellis=2 / 8x8dct=1 / cqm=0 / deadzone=21,11 / fast_pskip=1 / chroma_qp_offset=-2 / threads=12 / lookahead_threads=2 / sliced_threads=0 / nr=0 / decimate=1 / interlaced=0 / bluray_compat=0 / constrained_intra=0 / bframes=8 / b_pyramid=2 / b_adapt=2 / b_bias=0 / direct=3 / weightb=1 / open_gop=0 / weightp=2 / keyint=250 / keyint_min=25 / scenecut=40 / intra_refresh=0 / rc_lookahead=50 / rc=2pass / mbtree=1 / bitrate=1500 / ratetol=1.0 / qcomp=0.60 / qpmin=0 / qpmax=69 / qpstep=4 / cplxblur=20.0 / qblur=0.5 / vbv_maxrate=62500 / vbv_bufsize=78125 / nal_hrd=none / filler=0 / ip_ratio=1.40 / aq=1:1.00
Default : Yes
Forced : No
Statistics Tags Issue : mkvmerge v8.5.2 ('Crosses') 32bit 2016-03-28 09:19:59 / mkvmerge v5.9.0 ('On The Loose') built on Dec 9 2012 15:37:01 2010-02-22 21:41:31
FromStats_BitRate : 1500062
FromStats_Duration : 00:53:28.680000000
FromStats_FrameCount : 80217
FromStats_StreamSize : 601652756
Audio
ID : 2
Format : AC-3
Format/Info : Audio Coding 3
Mode extension : CM (complete main)
Format settings, Endianness : Big
Codec ID : A_AC3
Duration : 53mn 28s
Bit rate mode : Constant
Bit rate : 384 Kbps
Channel(s) : 6 channels
Channel positions : Front: L C R, Side: L R, LFE
Sampling rate : 48.0 KHz
Frame rate : 31.250 fps (1536 spf)
Compression mode : Lossy
Stream size : 147 MiB (20%)
Language : Russian
Default : Yes
Forced : No
raw [info]: 1024x576p 1:1 @ 25/1 fps (cfr)
x264 [info]: using SAR=1/1
x264 [info]: using cpu capabilities: MMX2 SSE2Fast SSSE3 SSE4.2 AVX
x264 [info]: profile High, level 4.1
x264 [info]: frame I:542 Avg QP:17.18 size: 59321
x264 [info]: frame P:20088 Avg QP:20.45 size: 14761
x264 [info]: frame B:59587 Avg QP:23.23 size: 4581
x264 [info]: consecutive B-frames: 1.9% 3.9% 5.5% 61.7% 8.2% 13.8% 1.3% 3.2% 0.4%
x264 [info]: mb I I16..4: 12.2% 73.6% 14.2%
x264 [info]: mb P I16..4: 2.5% 9.0% 0.8% P16..4: 46.2% 13.2% 10.8% 0.2% 0.1% skip:17.2%
x264 [info]: mb B I16..4: 0.2% 1.0% 0.1% B16..8: 34.1% 6.2% 1.2% direct: 4.7% skip:52.6% L0:42.2% L1:49.4% BI: 8.4%
x264 [info]: 8x8 transform intra:74.6% inter:77.3%
x264 [info]: direct mvs spatial:97.6% temporal:2.4%
x264 [info]: coded y,uvDC,uvAC intra: 68.1% 50.5% 16.6% inter: 18.1% 15.4% 0.3%
x264 [info]: i16 v,h,dc,p: 49% 13% 6% 31%
x264 [info]: i8 v,h,dc,ddl,ddr,vr,hd,vl,hu: 11% 9% 9% 8% 13% 14% 13% 12% 12%
x264 [info]: i4 v,h,dc,ddl,ddr,vr,hd,vl,hu: 12% 8% 3% 9% 15% 15% 14% 11% 12%
x264 [info]: i8c dc,h,v,p: 39% 31% 18% 11%
x264 [info]: Weighted P-Frames: Y:7.7% UV:2.8%
x264 [info]: ref P L0: 49.2% 12.6% 16.9% 5.9% 5.0% 4.0% 3.7% 2.4% 0.3% 0.0%
x264 [info]: ref B L0: 78.1% 10.5% 4.8% 2.5% 2.0% 1.3% 0.7%
x264 [info]: ref B L1: 94.9% 5.1%
x264 [info]: kb/s:1500.06
encoded 80217 frames, 27.92 fps, 1500.06 kb/s



   Похожие торренты   Торрент   Размер 
В этой теме нет новых непрочитанных сообщений. Мастроянни - Идеальный Итальянец / Mastroianni, The Ideal Italian (2015) HDTVRip 720p | P

0 | 0

1.64 ГБ

В этой теме нет новых непрочитанных сообщений. Итальянец / The Italian (2004) DVDRip-AVC by FREEISLAND

16 | 4

1.5 ГБ

В этой теме нет новых непрочитанных сообщений. Идеальный мужчина / Un homme idéal (2015) ВDRip | А

148 | 24

754.09 МБ

В этой теме нет новых непрочитанных сообщений. Идеальный мужчина / Un homme idéal (2015) HDRip | L1

2791 | 142

1.36 ГБ

В этой теме нет новых непрочитанных сообщений. Идеальный мужчина / Un homme idéal (2015) BDRip-AVC от Koenig | P, A

4 | 0

2.18 ГБ

В этой теме нет новых непрочитанных сообщений. Идеальный мужчина / Un homme idéal (2015) HDRip | Алексеев

1349 | 97

1.38 ГБ

В этой теме нет новых непрочитанных сообщений. Идеальный мужчина / Un homme idéal (2015) HDRip | Line

26 | 4

2.04 ГБ




Вы не можете начинать темы
Вы не можете отвечать на сообщения
Вы не можете редактировать свои сообщения
Вы не можете удалять свои сообщения
Вы не можете добавлять вложения

Перейти:  
Для Мосгорсуда, Роскомнадзора и рекламодателей: mosgorsud-torrent[собачка]yandex.ru
 Вход
ppkBB3cker v.2 © 2008-2014 @ PPK
[ Time : 0.049s | 16 Queries | GZIP : Off ]

Торрент трекер RUTOR.IN, Не можете зайти на rutor.org? Какой новый адрес рутор? Какое зеркало рутор? Не работает rutor.org и зеркала? Тогда наш торрент специально для вас. Rutor.in неофициальное зеркало rutor. В случае если у Вас заблокирован rutor или вдруг Вы не можете на него зайти, то Вы без труда сможете скачать бесплатно и без рекламы последние новинки кино, игр, сериалов и прочего у нас, на Rutor.in. Не нужно использовать прокси, чтобы зайти на рутор, достаточно воспользоваться нашим ресурсом. Все новые фильмы, игры, сериалы, книги и музыка за 2013 и 2014 годы через торрент бесплатно. Скачивайте фильмы в хорошем качестве, игры для пк, xbox, playstation без регистрации. У нас вы найдете новые Зарубежные сериалы и Русские сериалы 2013, 2014, 2015 годов. Оставайтесь с нами, качайте любимые фильмы, игры, сериалы, книги и музыку.