img image001 image001 image001 image001 image001 image001 image001 image001 image001 image001 image001 image001 image001 image001 image001

Planets Sun Sun Sun
Статистика раздачи
Автор: Nickolas3434 | Размер: 886.83 МБ | Добавлен: 05 апр 2016
Раздают: 75    Качают: 6
Скачать торрент
Скачать торрент
Описание торрента

СообщениеДобавлено: 05 апр 2016 


Название: Во славу русского оружия
Дата эфира: 2016-03-25 (телеканал «РЕН ТВ»)
Жанр: документальный, война, будущее, человечество
Описание: Война будущего без людей. Оружие будущего уничтожит человечество или остановит войну навсегда? Еще недавно даже самые смелые писатели-фантасты не могли представить, что война будет похожа на битву машин, а роботы и умные ракеты будут поражать друг друга на сверхвысоких скоростях. Уже сейчас сильнейшие армии мира стремительно меняют свой облик, а герои завтрашних войн будут совершать свои подвиги в удобных креслах вдали от поля боя. Чем ответит Россия? Сможем ли мы остановить атаку из космоса? И кто разрабатывает в наших конструкторских бюро оружие возмездия?
Страна: Россия
Производство: ООО «Продюсерский центр Гвардия» (по заказу «РЕН ТВ»), 2016
Продолжительность: 96 мин. (1 ч. 36 мин.)
Перевод: не требуется


Качество: PDTVRip.x264 (SDTV), Quicktime (Fast Start) (MP4)
Кодек: MPEG-4 (Base Media), AVC (High / Level 3.1) (CABAC / 5 RF), AAC (LC)
Видео: YUV420p, 720x400 (16:9), 1168 kb/s (Slow Preset / CRF 19), 25.000 fps
Аудио: 44.1 kHz, Stereo, 114 kb/s (Q 0.50), -23.0 LUFS ±0.5 LU (EBU R128)
General
Complete name : Во.славу.русского.оружия.2016.PDTVRip.x264-SDARMY.mp4
Format : MPEG-4
Format profile : Base Media
Codec ID : isom
File size : 887 MiB
Duration : 1h 36mn
Overall bit rate : 1 290 Kbps
Movie name : Во славу русского оружия
Recorded date : 2016-03-25
Encoded date : UTC 2016-03-30 05:13:26
Tagged date : UTC 2016-03-30 05:13:26
Writing application : Lavf57.25.100
Comment : ТК «РЕН ТВ», 25 марта 2016
Video
ID : 1
Format : AVC
Format/Info : Advanced Video Codec
Format profile : High@L3.1
Format settings, CABAC : Yes
Format settings, ReFrames : 5 frames
Codec ID : avc1
Codec ID/Info : Advanced Video Coding
Duration : 1h 36mn
Bit rate : 1 169 Kbps
Width : 720 pixels
Height : 400 pixels
Display aspect ratio : 16:9
Frame rate mode : Constant
Frame rate : 25.000 fps
Color space : YUV
Chroma subsampling : 4:2:0
Bit depth : 8 bits
Scan type : Progressive
Bits/(Pixel*Frame) : 0.162
Stream size : 804 MiB (91%)
Writing library : x264 core 148 r236 a01e339
Encoding settings : cabac=1 / ref=5 / deblock=1:0:0 / analyse=0x3:0x113 / me=umh / subme=8 / psy=1 / psy_rd=1.00:0.00 / mixed_ref=1 / me_range=16 / chroma_me=1 / trellis=1 / 8x8dct=1 / cqm=0 / deadzone=21,11 / fast_pskip=1 / chroma_qp_offset=-2 / threads=3 / lookahead_threads=1 / sliced_threads=0 / nr=0 / decimate=1 / interlaced=0 / bluray_compat=0 / constrained_intra=0 / bframes=3 / b_pyramid=2 / b_adapt=2 / b_bias=0 / direct=3 / weightb=1 / open_gop=0 / weightp=2 / keyint=250 / keyint_min=25 / scenecut=40 / intra_refresh=0 / rc_lookahead=50 / rc=crf / mbtree=1 / crf=19.0 / qcomp=0.60 / qpmin=0 / qpmax=69 / qpstep=4 / ip_ratio=1.40 / aq=1:1.00
Language : Russian
Encoded date : UTC 2016-03-30 05:13:26
Tagged date : UTC 2016-03-30 05:13:26
Audio
ID : 2
Format : AAC
Format/Info : Advanced Audio Codec
Format profile : LC
Codec ID : 40
Duration : 1h 36mn
Bit rate mode : Constant
Bit rate : 114 Kbps
Channel(s) : 2 channels
Channel positions : Front: L R
Sampling rate : 44.1 KHz
Compression mode : Lossy
Stream size : 78.6 MiB (9%)
Language : Russian
Encoded date : UTC 2016-03-30 05:13:26
Tagged date : UTC 2016-03-30 05:13:26

Релиз от:



   Похожие торренты   Торрент   Размер 
В этой теме нет новых непрочитанных сообщений. Голод (2016) PDTVRip-AVC от SDARMY

46 | 2

893.3 МБ

В этой теме нет новых непрочитанных сообщений. Потомки Ариев (2016) PDTVRip-AVC от SDARMY | РЕН ТВ

506 | 16

823.96 МБ

В этой теме нет новых непрочитанных сообщений. Незваные гости (2016) PDTVRip-AVC от SDARMY

121 | 12

879.37 МБ

В этой теме нет новых непрочитанных сообщений. Природа объявляет войну (2016) PDTVRip-AVC от SDARMY

237 | 28

769.72 МБ

В этой теме нет новых непрочитанных сообщений. Самая полезная программа [12-13] (2016) PDTVRip-AVC от SDARMY

28 | 3

809.13 МБ

В этой теме нет новых непрочитанных сообщений. Самая полезная программа [12 из ХХ] (2016) PDTVRip-AVC от SDARMY

70 | 6

419.16 МБ

В этой теме нет новых непрочитанных сообщений. Самая полезная программа [12-15] (2016) PDTVRip-AVC от SDARMY

35 | 46

1.49 ГБ




Вы не можете начинать темы
Вы не можете отвечать на сообщения
Вы не можете редактировать свои сообщения
Вы не можете удалять свои сообщения
Вы не можете добавлять вложения

Перейти:  
Для Мосгорсуда, Роскомнадзора и рекламодателей: mosgorsud-torrent[собачка]yandex.ru
 Вход
ppkBB3cker v.2 © 2008-2014 @ PPK
[ Time : 0.045s | 17 Queries | GZIP : Off ]

cron