img image001 image001 image001 image001 image001 image001 image001 image001 image001 image001 image001 image001 image001 image001 image001

Planets Sun Sun Sun
Статистика раздачи
Автор: Nickolas3434 | Размер: 6.18 ГБ | Добавлен: 06 апр 2016
Раздают: 96    Качают: 8
Скачать торрент
Скачать торрент
Описание торрента

СообщениеДобавлено: 06 апр 2016 


Название: День «Космических историй» с Игорем Прокопенко
Дата эфира: 2016-02-22 (телеканал «РЕН ТВ»)
Жанр: документальный, космос, боги, человечество
Авторы: Анна Трубачева, Екатерина Симонова, Анастасия Василевская, Галина Метревели, Дмитрий Воздвиженский, Антонина Коробейникова, Ирина Колодинская, Светлана Третьякова
Режиссеры: Артемий Гринчевский, Владимир Мордовин, Алексей Аленин, Михаил Черняк, Федор Калугин, Елена Гришина, Алексей Чистов, Глеб Михин, Игорь Марковский
Текст читали: Борис Миронов, Артем Кретов
Руководитель проекта: Игорь Прокопенко
Описание: Ученые все чаще находят доказательства тому, что раньше казалось выдумкой. Но сколько еще нераскрытых тайн! Боги древности – существовали ли они на самом деле? Принятое летоисчисление – неверно? Кто пишет историю? Существует ли доказательства существования НЛО? Что было до Большого взрыва? Когда погаснет солнце? От кого произошел человек? Где границы нашего мира? Наши предки прилетели с Марса? Сколько осталось жить нашей расе? В этом проекте мы попробуем разобраться в самых фантастических теориях о космосе и человечестве.
Часть 01 [00:48:12]: Кто-то нас придумал
Часть 02 [00:47:56]: Когда погаснет Солнце?
Часть 03 [00:48:15]: Великий обман
Часть 04 [00:48:14]: Что за новая планета?
Часть 05 [00:48:29]: Я отправляюсь на Марс
Часть 06 [00:48:06]: Кто управляет водой?
Часть 07 [00:48:04]: Вредный ветер перемен
Часть 08 [00:48:15]: Охота на циклопа
Часть 09 [01:36:06]: Золото инков
Часть 10 [00:48:14]: Где волшебную косят трын-траву?

Часть 11 [00:47:30]: Кто же мама?
Часть 12 [00:48:26]: Американцы на Луне
Часть 13 [00:48:27]: Как спецслужбы инопланетян ловили
Часть 14 [00:47:43]: Куда бежать?
Часть 15 [00:48:22]: Легко ли быть голубым?

Страна: Россия
Производство: ООО «АКЦЕПТ» (телеканал «РЕН ТВ»), 2016
Продолжительность: 14 по 48 мин. и 1 по 96 мин. (12 ч. 50 мин.)
Перевод: не требуется


Качество: PDTVRip.x264 (SDTV), Quicktime (Fast Start) (MP4)
Кодек: MPEG-4 (Base Media), AVC (High / Level 3.1) (CABAC / 5 RF), AAC (LC)
Видео: YUV420p, 720x400 (16:9), 765-1463 kb/s (Slow Preset / CRF 19), 25.000 fps
Аудио: 44.1 kHz, Stereo, 111-115 kb/s (Q 0.50), -23.0 LUFS ±0.5 LU (EBU R128)
General
Complete name : ДКИ.Part15.Легко.ли.быть.голубым.PDTVRip.x264-SDARMY.mp4
Format : MPEG-4
Format profile : Base Media
Codec ID : isom
File size : 408 MiB
Duration : 48mn 22s
Overall bit rate : 1 179 Kbps
Movie name : 15. Легко ли быть голубым? - День «Космических историй» с Игорем Прокопенко
Recorded date : 2016-02-22
Encoded date : UTC 2016-04-06 03:15:11
Tagged date : UTC 2016-04-06 03:15:11
Writing application : Lavf57.25.100
Comment : ТК «РЕН ТВ», 22 февраля 2016
Video
ID : 1
Format : AVC
Format/Info : Advanced Video Codec
Format profile : High@L3.1
Format settings, CABAC : Yes
Format settings, ReFrames : 5 frames
Codec ID : avc1
Codec ID/Info : Advanced Video Coding
Duration : 48mn 22s
Bit rate : 1 060 Kbps
Width : 720 pixels
Height : 400 pixels
Display aspect ratio : 16:9
Frame rate mode : Constant
Frame rate : 25.000 fps
Color space : YUV
Chroma subsampling : 4:2:0
Bit depth : 8 bits
Scan type : Progressive
Bits/(Pixel*Frame) : 0.147
Stream size : 367 MiB (90%)
Writing library : x264 core 148 r236 a01e339
Encoding settings : cabac=1 / ref=5 / deblock=1:0:0 / analyse=0x3:0x113 / me=umh / subme=8 / psy=1 / psy_rd=1.00:0.00 / mixed_ref=1 / me_range=16 / chroma_me=1 / trellis=1 / 8x8dct=1 / cqm=0 / deadzone=21,11 / fast_pskip=1 / chroma_qp_offset=-2 / threads=3 / lookahead_threads=1 / sliced_threads=0 / nr=0 / decimate=1 / interlaced=0 / bluray_compat=0 / constrained_intra=0 / bframes=3 / b_pyramid=2 / b_adapt=2 / b_bias=0 / direct=3 / weightb=1 / open_gop=0 / weightp=2 / keyint=250 / keyint_min=25 / scenecut=40 / intra_refresh=0 / rc_lookahead=50 / rc=crf / mbtree=1 / crf=19.0 / qcomp=0.60 / qpmin=0 / qpmax=69 / qpstep=4 / ip_ratio=1.40 / aq=1:1.00
Language : Russian
Encoded date : UTC 2016-04-06 03:15:11
Tagged date : UTC 2016-04-06 03:15:11
Audio
ID : 2
Format : AAC
Format/Info : Advanced Audio Codec
Format profile : LC
Codec ID : 40
Duration : 48mn 22s
Bit rate mode : Constant
Bit rate : 112 Kbps
Channel(s) : 2 channels
Channel positions : Front: L R
Sampling rate : 44.1 KHz
Compression mode : Lossy
Stream size : 38.9 MiB (10%)
Language : Russian
Encoded date : UTC 2016-04-06 03:15:11
Tagged date : UTC 2016-04-06 03:15:11

Релиз от:



   Похожие торренты   Торрент   Размер 
В этой теме нет новых непрочитанных сообщений. День космических историй с Игорем Прокопенко [01-14] (Эфир 05.01.2016) WEB-DL 720p от Generalfilm

675 | 273

9.47 ГБ

В этой теме нет новых непрочитанных сообщений. Территория заблуждений с Игорем Прокопенко [113-118] (2016) PDTVRip-AVC от SDARMY

155 | 80

4.82 ГБ

В этой теме нет новых непрочитанных сообщений. Территория заблуждений с Игорем Прокопенко [113-119] (2016) PDTVRip-AVC от SDARMY

235 | 97

5.53 ГБ

В этой теме нет новых непрочитанных сообщений. Территория заблуждений с Игорем Прокопенко [113-117] (2016) PDTVRip-AVC от SDARMY

271 | 47

4.09 ГБ

В этой теме нет новых непрочитанных сообщений. Территория заблуждений с Игорем Прокопенко [113-116] (2016) PDTVRip-AVC от SDARMY

160 | 46

3.28 ГБ

В этой теме нет новых непрочитанных сообщений. Территория заблуждений с Игорем Прокопенко [113] (2016-01-23) PDTVRip-AVC от SDARMY | РЕН ТВ

0 | 59

928.07 МБ

В этой теме нет новых непрочитанных сообщений. Территория заблуждений с Игорем Прокопенко [120] (2016-03-12) PDTVRip-AVC от SDARMY | РЕН ТВ

0 | 134

898.81 МБ




Вы не можете начинать темы
Вы не можете отвечать на сообщения
Вы не можете редактировать свои сообщения
Вы не можете удалять свои сообщения
Вы не можете добавлять вложения

Перейти:  
Для Мосгорсуда, Роскомнадзора и рекламодателей: mosgorsud-torrent[собачка]yandex.ru
 Вход
ppkBB3cker v.2 © 2008-2014 @ PPK
[ Time : 0.054s | 16 Queries | GZIP : Off ]

cron