img image001 image001 image001 image001 image001 image001 image001 image001 image001 image001 image001 image001 image001 image001 image001

Planets Sun Sun Sun
Статистика раздачи
Автор: Nickolas3434 | Размер: 1.05 ГБ | Добавлен: 08 апр 2016
Раздают: 19    Качают: 1
Скачать торрент
Скачать торрент
Описание торрента

СообщениеДобавлено: 08 апр 2016 


Название: Импортный фашизм
Дата эфира: 2016-03-11 (телеканал «РЕН ТВ»)
Жанр: документальный, фашизм, неонацизм, современность
Описание: Второе пришествие коричневой чумы. В XX веке принято считать, что фашизм был побежден во Второй мировой войне. Гитлер проиграл, а его идеология отправилась на свалку истории. Но так ли это на самом деле? В XXI веке мы все чаще слышим о превосходстве той, или иной нации. На улицах городов проводятся массовые акции и марши против мигрантов. Правые партии завоевывают все большую популярность по всей Европе. Чем отличаются современные националисты от фашистов? Кто поддерживает радикально-правые движения? Как бывшие сотрудники СС и Вермахта нашли свое место в западной демократии? Кто сегодня продолжает идеи нацизма с трибун? И как на это реагирует молодое поколение?
Страна: Россия
Производство: ООО «Продюсерский центр Гвардия» (по заказу «РЕН ТВ»), 2016
Продолжительность: 96 мин. (1 ч. 36 мин.)
Перевод: не требуется


Качество: HDTVRip.x264 (SDTV), Quicktime (Fast Start) (MP4)
Кодек: MPEG-4 (Base Media), AVC (High / Level 3.1) (CABAC / 5 RF), AAC (LC)
Видео: YUV420p, 720x400 (16:9), 1388 kb/s (Slow Preset / CRF 19), 25.000 fps
Аудио: 44.1 kHz, Stereo, 157 kb/s (Q 0.50), -23.0 LUFS ±0.5 LU (EBU R128)
General
Complete name : Импортный.фашизм.2016.HDTVRip.x264-SDARMY.mp4
Format : MPEG-4
Format profile : Base Media
Codec ID : isom
File size : 1.05 GiB
Duration : 1h 36mn
Overall bit rate : 1 553 Kbps
Movie name : Импортный фашизм
Recorded date : 2016-03-11
Encoded date : UTC 2016-04-07 00:45:32
Tagged date : UTC 2016-04-07 00:45:32
Writing application : Lavf57.25.100
Comment : ТК «РЕН ТВ», 11 марта 2016
Video
ID : 1
Format : AVC
Format/Info : Advanced Video Codec
Format profile : High@L3.1
Format settings, CABAC : Yes
Format settings, ReFrames : 5 frames
Codec ID : avc1
Codec ID/Info : Advanced Video Coding
Duration : 1h 36mn
Bit rate : 1 389 Kbps
Width : 720 pixels
Height : 400 pixels
Display aspect ratio : 16:9
Frame rate mode : Constant
Frame rate : 25.000 fps
Color space : YUV
Chroma subsampling : 4:2:0
Bit depth : 8 bits
Scan type : Progressive
Bits/(Pixel*Frame) : 0.193
Stream size : 962 MiB (89%)
Writing library : x264 core 148 r236 a01e339
Encoding settings : cabac=1 / ref=5 / deblock=1:0:0 / analyse=0x3:0x113 / me=umh / subme=8 / psy=1 / psy_rd=1.00:0.00 / mixed_ref=1 / me_range=16 / chroma_me=1 / trellis=1 / 8x8dct=1 / cqm=0 / deadzone=21,11 / fast_pskip=1 / chroma_qp_offset=-2 / threads=3 / lookahead_threads=1 / sliced_threads=0 / nr=0 / decimate=1 / interlaced=0 / bluray_compat=0 / constrained_intra=0 / bframes=3 / b_pyramid=2 / b_adapt=2 / b_bias=0 / direct=3 / weightb=1 / open_gop=0 / weightp=2 / keyint=250 / keyint_min=25 / scenecut=40 / intra_refresh=0 / rc_lookahead=50 / rc=crf / mbtree=1 / crf=19.0 / qcomp=0.60 / qpmin=0 / qpmax=69 / qpstep=4 / ip_ratio=1.40 / aq=1:1.00
Language : Russian
Encoded date : UTC 2016-04-07 00:45:32
Tagged date : UTC 2016-04-07 00:45:32
Audio
ID : 2
Format : AAC
Format/Info : Advanced Audio Codec
Format profile : LC
Codec ID : 40
Duration : 1h 36mn
Bit rate mode : Constant
Bit rate : 158 Kbps
Channel(s) : 2 channels
Channel positions : Front: L R
Sampling rate : 44.1 KHz
Compression mode : Lossy
Stream size : 109 MiB (10%)
Language : Russian
Encoded date : UTC 2016-04-07 00:45:32
Tagged date : UTC 2016-04-07 00:45:32

Релиз от:



   Похожие торренты   Торрент   Размер 
В этой теме нет новых непрочитанных сообщений. Голод (2016) PDTVRip-AVC от SDARMY

88 | 3

893.3 МБ

В этой теме нет новых непрочитанных сообщений. Незваные гости (2016) PDTVRip-AVC от SDARMY

121 | 12

879.37 МБ

В этой теме нет новых непрочитанных сообщений. Потомки Ариев (2016) PDTVRip-AVC от SDARMY | РЕН ТВ

1208 | 83

823.96 МБ

В этой теме нет новых непрочитанных сообщений. Самая полезная программа [12-13] (2016) PDTVRip-AVC от SDARMY

28 | 3

809.13 МБ

В этой теме нет новых непрочитанных сообщений. Природа объявляет войну (2016) PDTVRip-AVC от SDARMY

237 | 28

769.72 МБ

В этой теме нет новых непрочитанных сообщений. Во славу русского оружия (2016) PDTVRip-AVC от SDARMY

78 | 5

886.83 МБ

В этой теме нет новых непрочитанных сообщений. Самые ужасные эпидемии (2016) PDTVRip-AVC от SDARMY

38 | 1

824.71 МБ




Вы не можете начинать темы
Вы не можете отвечать на сообщения
Вы не можете редактировать свои сообщения
Вы не можете удалять свои сообщения
Вы не можете добавлять вложения

Перейти:  
Для Мосгорсуда, Роскомнадзора и рекламодателей: mosgorsud-torrent[собачка]yandex.ru
 Вход
ppkBB3cker v.2 © 2008-2014 @ PPK
[ Time : 0.036s | 14 Queries | GZIP : Off ]

Торрент трекер RUTOR.IN, Не можете зайти на rutor.org? Какой новый адрес рутор? Какое зеркало рутор? Не работает rutor.org и зеркала? Тогда наш торрент специально для вас. Rutor.in неофициальное зеркало rutor. В случае если у Вас заблокирован rutor или вдруг Вы не можете на него зайти, то Вы без труда сможете скачать бесплатно и без рекламы последние новинки кино, игр, сериалов и прочего у нас, на Rutor.in. Не нужно использовать прокси, чтобы зайти на рутор, достаточно воспользоваться нашим ресурсом. Все новые фильмы, игры, сериалы, книги и музыка за 2013 и 2014 годы через торрент бесплатно. Скачивайте фильмы в хорошем качестве, игры для пк, xbox, playstation без регистрации. У нас вы найдете новые Зарубежные сериалы и Русские сериалы 2013, 2014, 2015 годов. Оставайтесь с нами, качайте любимые фильмы, игры, сериалы, книги и музыку.