img image001 image001 image001 image001 image001 image001 image001 image001 image001 image001 image001 image001 image001 image001 image001

Planets Sun Sun Sun
Статистика раздачи
Автор: Nickolas3434 | Размер: 764.34 МБ | Добавлен: 10 апр 2016
Раздают: 4    Качают: 0
Скачать торрент
Скачать торрент
Описание торрента

СообщениеДобавлено: 10 апр 2016 


Исполнитель/Группа: С.Скачков и гр.«Земляне»
Жанр: Rock
Год выпуска: 2016
Продолжительность: 01:28:49
Доп. информация С.Скачков и гр.«Земляне» в программе «К нам приехал» эфир 7 апреля 2016 г.
Формат: MKV
Качество: IPTVRip
Видео кодек: H.265
Аудио кодек: AC-3
Видео: H.265 (16:9) 640X480 ~1000 Kbps 25.000 fps
Аудио: AC-3, 2 ch, 192 Kbps, CBR, 48.0 KHz
1.Каскадеры
2.Прости Земля
3.Маленький кораблик
4.О любви к природе
5.Взлетная полоса
6.Поверь в мечту
7.Красный конь
8.Путь домой
9.А жизнь идет...
10.Трава у дома
Общее
Полное имя : C:UsersDesktopZemlyane_07.04.16.mkv
Формат : Matroska
Версия формата : Version 1
Размер файла : 764 Мбайт
Продолжительность : 1 ч. 28 м.
Общий поток : 1203 Кбит/сек
Программа кодирования : Cyberlink Matroska Muxer v1.0.0
Библиотека кодирования : libebml v0.7.8 + libmatroska v0.8.1
Видео
Идентификатор : 1
Формат : HEVC
Формат/Информация : High Efficiency Video Coding
Профиль формата : Main@L3@Main
Идентификатор кодека : V_MPEGH/ISO/HEVC
Продолжительность : 1 ч. 28 м.
Битрейт : 987 Кбит/сек
Ширина : 640 пикселей
Высота : 480 пикселей
Соотношение сторон : 16:9
Режим частоты кадров : Постоянный
Частота кадров : 25,000 кадров/сек
Цветовое пространство : YUV
Субдискретизация насыщенности : 4:2:0
Битовая глубина : 8 бит
Бит/(Пиксели*Кадры) : 0.129
Размер потока : 627 Мбайт (82%)
Язык : English
Default : Да
Forced : Нет
Аудио
Идентификатор : 2
Формат : AC-3
Формат/Информация : Audio Coding 3
Расширение режима : CM (complete main)
Параметр Endianness формата : Big
Идентификатор кодека : A_AC3
Продолжительность : 1 ч. 28 м.
Вид битрейта : Постоянный
Битрейт : 192 Кбит/сек
Каналы : 2 канала
Расположение каналов : Front: L R
Частота : 48,0 КГц
Частота кадров : 31,250 кадров/сек (1536 spf)
Метод сжатия : С потерями
Размер потока : 122 Мбайт (16%)
Язык : English
Default : Да
Forced : Нет



   Похожие торренты   Торрент   Размер 
В этой теме нет новых непрочитанных сообщений. К нам приехал... - Группа «После 11» [01.10] (2015) IPTVRip-AVC

7 | 5

698.2 МБ

В этой теме нет новых непрочитанных сообщений. К нам приехал... группа Баян-Mix [23.03] (2017) DVB

6 | 0

2.17 ГБ

В этой теме нет новых непрочитанных сообщений. К нам приехал... - Группа «Две луны» (Павел Кашин) (2011) WEBRip

17 | 2

451.83 МБ

В этой теме нет новых непрочитанных сообщений. К нам приехал... - Павел Слободкин и группа «Веселые ребята» [15.10] (2015) DVB

43 | 6

1.68 ГБ

В этой теме нет новых непрочитанных сообщений. К нам приехал... - Марина Девятова [11.05] (2017) IPTVRip

4 | 1

1.1 ГБ

В этой теме нет новых непрочитанных сообщений. К нам приехал... Аркадий Хоралов (2016) DVB

2 | 0

1.73 ГБ

В этой теме нет новых непрочитанных сообщений. Сергей Скачков - Дискография (2000-2014) mp3

19 | 0

396.19 МБ




Вы не можете начинать темы
Вы не можете отвечать на сообщения
Вы не можете редактировать свои сообщения
Вы не можете удалять свои сообщения
Вы не можете добавлять вложения

Перейти:  
Для Мосгорсуда, Роскомнадзора и рекламодателей: mosgorsud-torrent[собачка]yandex.ru
 Вход
ppkBB3cker v.2 © 2008-2014 @ PPK
[ Time : 0.047s | 14 Queries | GZIP : Off ]

Торрент трекер RUTOR.IN, Не можете зайти на rutor.org? Какой новый адрес рутор? Какое зеркало рутор? Не работает rutor.org и зеркала? Тогда наш торрент специально для вас. Rutor.in неофициальное зеркало rutor. В случае если у Вас заблокирован rutor или вдруг Вы не можете на него зайти, то Вы без труда сможете скачать бесплатно и без рекламы последние новинки кино, игр, сериалов и прочего у нас, на Rutor.in. Не нужно использовать прокси, чтобы зайти на рутор, достаточно воспользоваться нашим ресурсом. Все новые фильмы, игры, сериалы, книги и музыка за 2013 и 2014 годы через торрент бесплатно. Скачивайте фильмы в хорошем качестве, игры для пк, xbox, playstation без регистрации. У нас вы найдете новые Зарубежные сериалы и Русские сериалы 2013, 2014, 2015 годов. Оставайтесь с нами, качайте любимые фильмы, игры, сериалы, книги и музыку.