img image001 image001 image001 image001 image001 image001 image001 image001 image001 image001 image001 image001 image001 image001 image001

Planets Sun Sun Sun
Статистика раздачи
Автор: Nickolas3434 | Размер: 804.81 МБ | Добавлен: 09 апр 2016
Раздают: 0    Качают: 2
Скачать торрент
Скачать торрент
Описание торрента

СообщениеДобавлено: 09 апр 2016 


Исполнитель/Группа: Сергей Любавин
Жанр: POP
Год выпуска: 2016
Продолжительность: 01:00:08
Доп. информация Сергей Любавин на канале "Ностальгия" эфир 7 апреля 2016 г.
Формат: MP4
Качество: IPTVRip
Видео кодек: H.264
Аудио кодек: AAC
Видео: H.264 720x576 (4:3) 1600kbps 25.00fps
Аудио: AAC 48000Hz stereo 192kbps 2 канала
1.Бессоница
2.Эта женщина
3.Волчонок
4.Обрученная
5.Цветок
Общее
Полное имя : G:Lubavin_07.04.16.mp4
Формат : MPEG-4
Профиль формата : Base Media
Идентификатор кодека : isom (isom/iso2/avc1/mp41)
Размер файла : 805 Мбайт
Продолжительность : 1 ч. 0 м.
Режим общего битрейта : Переменный
Общий поток : 1871 Кбит/сек
Программа кодирования : Lavf56.25.101
Видео
Идентификатор : 1
Формат : AVC
Формат/Информация : Advanced Video Codec
Профиль формата : High@L3
Параметр CABAC формата : Да
Параметр ReFrames формата : 4 кадра
Параметр GOP формата : M=2, N=25
Идентификатор кодека : avc1
Идентификатор кодека/Информация : Advanced Video Coding
Продолжительность : 1 ч. 0 м.
Вид битрейта : Переменный
Битрейт : 1673 Кбит/сек
Максимальный битрейт : 1800 Кбит/сек
Ширина : 720 пикселей
Высота : 576 пикселей
Соотношение сторон : 4:3
Режим частоты кадров : Переменный
Частота кадров : 24,902 кадров/сек
Цветовое пространство : YUV
Субдискретизация насыщенности : 4:2:0
Битовая глубина : 8 бит
Тип развёртки : MBAFF
Метод сохранения типа развёртки : Чередующиеся поля
Порядок развёртки : Верхнее поле первое
Бит/(Пиксели*Кадры) : 0.162
Размер потока : 720 Мбайт (89%)
Аудио
Идентификатор : 2
Формат : AAC
Формат/Информация : Advanced Audio Codec
Профиль формата : LC
Идентификатор кодека : 40
Продолжительность : 1 ч. 0 м.
Вид битрейта : Постоянный
Битрейт : 192 Кбит/сек
Каналы : 2 канала
Расположение каналов : Front: L R
Частота : 48,0 КГц
Частота кадров : 46,875 кадров/сек (1024 spf)
Метод сжатия : С потерями
Размер потока : 82,4 Мбайт (10%)
Язык : Russian
Default : Да
Alternate group : 1



   Похожие торренты   Торрент   Размер 
В этой теме нет новых непрочитанных сообщений. Сергей Васюта и группа «Сладкий сон» в программе «Рожденные в СССР» [15.03] (2016) DVB

26 | 9

808.5 МБ

В этой теме нет новых непрочитанных сообщений. Рожденные в СССР - Сергей Беликов [29.05] (2017) DVB

5 | 1

976.04 МБ

В этой теме нет новых непрочитанных сообщений. Группа «Пикник» в программе «Рожденные в СССР» [09.04] (2016) DVB

34 | 3

801.41 МБ

В этой теме нет новых непрочитанных сообщений. Сергей Любавин — Любовь моя земная (2011) MP3

13 | 9

124.34 МБ

В этой теме нет новых непрочитанных сообщений. Сергей Любавин - MP3 Play. Музыкальная коллекция (2014) MP3

142 | 13

643.1 МБ

В этой теме нет новых непрочитанных сообщений. Сергей Любавин - Любовь моя земная (2011) DVDRip от Lebanon

32 | 6

1.46 ГБ

В этой теме нет новых непрочитанных сообщений. Сергей Любавин - Наш Есенин (2010) DVDRip от FreeBie Tracker

47 | 6

2.05 ГБ




Вы не можете начинать темы
Вы не можете отвечать на сообщения
Вы не можете редактировать свои сообщения
Вы не можете удалять свои сообщения
Вы не можете добавлять вложения

Перейти:  
Для Мосгорсуда, Роскомнадзора и рекламодателей: mosgorsud-torrent[собачка]yandex.ru
 Вход
ppkBB3cker v.2 © 2008-2014 @ PPK
[ Time : 0.025s | 15 Queries | GZIP : Off ]

Торрент трекер RUTOR.IN, Не можете зайти на rutor.org? Какой новый адрес рутор? Какое зеркало рутор? Не работает rutor.org и зеркала? Тогда наш торрент специально для вас. Rutor.in неофициальное зеркало rutor. В случае если у Вас заблокирован rutor или вдруг Вы не можете на него зайти, то Вы без труда сможете скачать бесплатно и без рекламы последние новинки кино, игр, сериалов и прочего у нас, на Rutor.in. Не нужно использовать прокси, чтобы зайти на рутор, достаточно воспользоваться нашим ресурсом. Все новые фильмы, игры, сериалы, книги и музыка за 2013 и 2014 годы через торрент бесплатно. Скачивайте фильмы в хорошем качестве, игры для пк, xbox, playstation без регистрации. У нас вы найдете новые Зарубежные сериалы и Русские сериалы 2013, 2014, 2015 годов. Оставайтесь с нами, качайте любимые фильмы, игры, сериалы, книги и музыку.
cron