img image001 image001 image001 image001 image001 image001 image001 image001 image001 image001 image001 image001 image001 image001 image001

Planets Sun Sun Sun
Статистика раздачи
Автор: Nickolas3434 | Размер: 1.31 ГБ | Добавлен: 11 апр 2016
Раздают: 6    Качают: 0
Скачать торрент
Скачать торрент
Описание торрента

СообщениеДобавлено: 11 апр 2016 

Теория Заговора. Бакалея


#77
Год выпуска: 09.04.2016
Страна: Россия
Студия: Первый Канал HD
Жанр: Документальный
Продолжительность: 0:42:37
Автор и руководитель цикла: Андрей Сычев
Режиссеры: Алексей Булейко, Кирилл Ващенко
Ведущий: Михаил Мамаев

Описание: Крупы, макароны, мука, чай, кофе – товары первой необходимости, традиционно самый большой продовольственный отдел. И самый большой доход магазина. На этих товарах зарабатываются миллионы. Как отличить дешевку от элитного продукта и бесполезную еду от диетической?

Автор рипа: lrn
Автор записи: GeneralFilm
Сэмпл: sendfile

Тип релиза: HDTVRip 720p
Контейнер: MKV
Видео: 1280x720 (16:9), 25,000 fps, H264, ~4000 kbps avg, ~0.174 bit/pixel
Аудио: 48 kHz, AC3 Dolby Digital, 3/2 (L,C,R,l,r) + LFE ch, ~384.00 kbps avg

General
Unique ID : 189767850381506720926309992661217704176 (0x8EC3F563BDA60934A8CCF8EC7693F8F0)
Complete name : E:uTorrent.TempTempTeoriya.Zagovora.(2016.04.09).HDTVRip.720p.x264-lrn.mkv
Format : Matroska
Format version : Version 4 / Version 2
File size : 1.31 GiB
Duration : 42mn 37s
Overall bit rate : 4 386 Kbps
Movie name : Teoriya.Zagovora.(2016.04.09).HDTVRip.720p.x264-lrn
Encoded date : UTC 2010-02-22 21:41:31
Writing application : mkvmerge v5.9.0 ('On The Loose') built on Dec 9 2012 15:37:01
Writing library : libebml v1.3.0 + libmatroska v1.4.0
Video
ID : 1
Format : AVC
Format/Info : Advanced Video Codec
Format profile : High@L4.1
Format settings, CABAC : Yes
Format settings, ReFrames : 8 frames
Codec ID : V_MPEG4/ISO/AVC
Duration : 42mn 37s
Bit rate : 4 000 Kbps
Width : 1 280 pixels
Height : 720 pixels
Display aspect ratio : 16:9
Frame rate mode : Constant
Frame rate : 25.000 fps
Color space : YUV
Chroma subsampling : 4:2:0
Bit depth : 8 bits
Scan type : Progressive
Bits/(Pixel*Frame) : 0.174
Stream size : 1.17 GiB (89%)
Writing library : x264 core 148 r2638 7599210
Encoding settings : cabac=1 / ref=8 / deblock=1:-3:-3 / analyse=0x3:0x133 / me=umh / subme=9 / psy=1 / psy_rd=1.00:0.00 / mixed_ref=1 / me_range=32 / chroma_me=1 / trellis=2 / 8x8dct=1 / cqm=0 / deadzone=21,11 / fast_pskip=1 / chroma_qp_offset=-2 / threads=12 / lookahead_threads=2 / sliced_threads=0 / nr=0 / decimate=1 / interlaced=0 / bluray_compat=0 / constrained_intra=0 / bframes=8 / b_pyramid=2 / b_adapt=2 / b_bias=0 / direct=3 / weightb=1 / open_gop=0 / weightp=2 / keyint=250 / keyint_min=25 / scenecut=40 / intra_refresh=0 / rc_lookahead=50 / rc=2pass / mbtree=1 / bitrate=4000 / ratetol=1.0 / qcomp=0.60 / qpmin=0 / qpmax=69 / qpstep=4 / cplxblur=20.0 / qblur=0.5 / vbv_maxrate=62500 / vbv_bufsize=78125 / nal_hrd=none / filler=0 / ip_ratio=1.40 / aq=1:1.00
Default : Yes
Forced : No
Statistics Tags Issue : mkvmerge v8.5.2 ('Crosses') 32bit 2016-04-09 17:08:46 / mkvmerge v5.9.0 ('On The Loose') built on Dec 9 2012 15:37:01 2010-02-22 21:41:31
FromStats_BitRate : 3999890
FromStats_Duration : 00:42:37.680000000
FromStats_FrameCount : 63942
FromStats_StreamSize : 1278805045
Audio
ID : 2
Format : AC-3
Format/Info : Audio Coding 3
Mode extension : CM (complete main)
Format settings, Endianness : Big
Codec ID : A_AC3
Duration : 42mn 37s
Bit rate mode : Constant
Bit rate : 384 Kbps
Channel(s) : 6 channels
Channel positions : Front: L C R, Side: L R, LFE
Sampling rate : 48.0 KHz
Frame rate : 31.250 fps (1536 spf)
Compression mode : Lossy
Stream size : 117 MiB (9%)
Language : Russian
Default : Yes
Forced : No
raw [info]: 1280x720p 1:1 @ 25/1 fps (cfr)
x264 [info]: using SAR=1/1
x264 [info]: using cpu capabilities: MMX2 SSE2Fast SSSE3 SSE4.2 AVX
x264 [info]: profile High, level 4.1
x264 [info]: frame I:625 Avg QP:13.03 size:133123
x264 [info]: frame P:19224 Avg QP:16.27 size: 41198
x264 [info]: frame B:44093 Avg QP:18.53 size: 9154
x264 [info]: consecutive B-frames: 5.7% 7.0% 7.8% 70.4% 4.6% 3.2% 0.6% 0.6% 0.1%
x264 [info]: mb I I16..4: 6.1% 72.5% 21.4%
x264 [info]: mb P I16..4: 2.4% 13.1% 1.5% P16..4: 39.6% 21.4% 13.3% 0.7% 0.2% skip: 7.8%
x264 [info]: mb B I16..4: 0.2% 1.2% 0.1% B16..8: 33.8% 8.5% 1.9% direct: 6.5% skip:47.8% L0:38.4% L1:44.6% BI:17.0%
x264 [info]: 8x8 transform intra:76.3% inter:56.4%
x264 [info]: direct mvs spatial:98.1% temporal:1.9%
x264 [info]: coded y,uvDC,uvAC intra: 76.3% 85.8% 57.7% inter: 21.2% 25.6% 3.2%
x264 [info]: i16 v,h,dc,p: 26% 15% 5% 54%
x264 [info]: i8 v,h,dc,ddl,ddr,vr,hd,vl,hu: 14% 14% 9% 7% 10% 11% 12% 10% 12%
x264 [info]: i4 v,h,dc,ddl,ddr,vr,hd,vl,hu: 15% 13% 6% 8% 13% 12% 12% 10% 11%
x264 [info]: i8c dc,h,v,p: 37% 27% 20% 17%
x264 [info]: Weighted P-Frames: Y:1.7% UV:0.9%
x264 [info]: ref P L0: 58.4% 11.4% 15.1% 4.7% 3.7% 2.6% 2.4% 1.6% 0.2% 0.0%
x264 [info]: ref B L0: 83.6% 9.6% 3.2% 1.5% 1.0% 0.7% 0.4%
x264 [info]: ref B L1: 96.4% 3.6%
x264 [info]: kb/s:3999.89
encoded 63942 frames, 15.51 fps, 3999.89 kb/s



   Похожие торренты   Торрент   Размер 
В этой теме нет новых непрочитанных сообщений. Теория Заговора. Бакалея [09.04] (2016) HDTVRip-AVC

9 | 1

574.94 МБ

В этой теме нет новых непрочитанных сообщений. Теория заговора. Бакалея [Эфир 09.04] (2016) HDTVRip от GeneralFilm

183 | 3

610.2 МБ

В этой теме нет новых непрочитанных сообщений. Теория заговора. Бакалея [Эфир 09.04] (2016) HDTV 1080i от GeneralFilm

36 | 4

2.1 ГБ

В этой теме нет новых непрочитанных сообщений. Теория Заговора. Рыба [21.02] (2016) HDTVRip 720p

231 | 6

1.35 ГБ

В этой теме нет новых непрочитанных сообщений. Теория Заговора. Молоко [26.03] (2016) HDTVRip 720p

167 | 0

1.3 ГБ

В этой теме нет новых непрочитанных сообщений. Теория Заговора. Хлеб [30.04] (2016) HDTVRip 720p

0 | 0

1.44 ГБ

В этой теме нет новых непрочитанных сообщений. Теория Заговора. Сладости [13.02] (2016) HDTVRip 720p

41 | 1

1.35 ГБ




Вы не можете начинать темы
Вы не можете отвечать на сообщения
Вы не можете редактировать свои сообщения
Вы не можете удалять свои сообщения
Вы не можете добавлять вложения

Перейти:  
Для Мосгорсуда, Роскомнадзора и рекламодателей: mosgorsud-torrent[собачка]yandex.ru
 Вход
ppkBB3cker v.2 © 2008-2014 @ PPK
[ Time : 0.020s | 17 Queries | GZIP : On ]

Торрент трекер RUTOR.IN, Не можете зайти на rutor.org? Какой новый адрес рутор? Какое зеркало рутор? Не работает rutor.org и зеркала? Тогда наш торрент специально для вас. Rutor.in неофициальное зеркало rutor. В случае если у Вас заблокирован rutor или вдруг Вы не можете на него зайти, то Вы без труда сможете скачать бесплатно и без рекламы последние новинки кино, игр, сериалов и прочего у нас, на Rutor.in. Не нужно использовать прокси, чтобы зайти на рутор, достаточно воспользоваться нашим ресурсом. Все новые фильмы, игры, сериалы, книги и музыка за 2013 и 2014 годы через торрент бесплатно. Скачивайте фильмы в хорошем качестве, игры для пк, xbox, playstation без регистрации. У нас вы найдете новые Зарубежные сериалы и Русские сериалы 2013, 2014, 2015 годов. Оставайтесь с нами, качайте любимые фильмы, игры, сериалы, книги и музыку.