img image001 image001 image001 image001 image001 image001 image001 image001 image001 image001 image001 image001 image001 image001 image001

Planets Sun Sun Sun
Статистика раздачи
Автор: Nickolas3434 | Размер: 1.14 ГБ | Добавлен: 20 апр 2016
Раздают: 1    Качают: 1
Скачать торрент
Скачать торрент
Описание торрента

СообщениеДобавлено: 20 апр 2016 

Я - Стив МакКуин / I Am Steve McQueen


#77
Год выпуска: 2014
Страна: Канада | Network Entertainment | McQueen Racing
Жанр: Документальный
Продолжительность: 1:26:29
Перевод: Профессиональный (многоголосый закадровый) | "Эй Би Видео" по заказу "Первого Канала"
Режиссеры: Джефф Ренфро / Jeff Renfroe

Описание: Стив Маккуин – одна из ярчайших кинозвезд Голливуда прошлых лет. Мужественный вид, магнетизм «плохого парня» и сногсшибательная харизма выделяли Маккуина среди коллег по цеху. Стив вырос в маленьком городке в пригороде Индианаполиса, служил в морской пехоте США и стал одним из самых высокооплачиваемых и востребованных актеров своего поколения.


Автор рипа: lrn
Автор записи: Alexin29
Сэмпл: sendfile

Тип релиза: HDTVRip-AVC
Контейнер: MKV
Видео: 1024x576 (16:9), 25,000 fps, H264, ~1500 kbps avg, ~0.102 bit/pixel
Аудио: 48 kHz, AC3 Dolby Digital, 3/2 (L,C,R,l,r) + LFE ch, ~384.00 kbps avg

General
Unique ID : 170793087980512048689837419660880983342 (0x807D8D5FD6371AD6B3E7ACFDC8E1352E)
Complete name : E:uTorrent.TempTempI.Am.Steve.McQueen.2014.HDTVRip-AVC.x264-RUS-lrn.mkv
Format : Matroska
Format version : Version 4 / Version 2
File size : 1.14 GiB
Duration : 1h 26mn
Overall bit rate : 1 885 Kbps
Movie name : I.Am.Steve.McQueen.2014.HDTVRip-AVC.x264-RUS-lrn
Encoded date : UTC 2010-02-22 21:41:31
Writing application : mkvmerge v5.9.0 ('On The Loose') built on Dec 9 2012 15:37:01
Writing library : libebml v1.3.0 + libmatroska v1.4.0
Video
ID : 1
Format : AVC
Format/Info : Advanced Video Codec
Format profile : High@L4.1
Format settings, CABAC : Yes
Format settings, ReFrames : 8 frames
Codec ID : V_MPEG4/ISO/AVC
Duration : 1h 26mn
Bit rate : 1 500 Kbps
Width : 1 024 pixels
Height : 576 pixels
Display aspect ratio : 16:9
Frame rate mode : Constant
Frame rate : 25.000 fps
Color space : YUV
Chroma subsampling : 4:2:0
Bit depth : 8 bits
Scan type : Progressive
Bits/(Pixel*Frame) : 0.102
Stream size : 905 MiB (78%)
Writing library : x264 core 148 r2638 7599210
Encoding settings : cabac=1 / ref=8 / deblock=1:-3:-3 / analyse=0x3:0x133 / me=umh / subme=9 / psy=1 / psy_rd=1.00:0.00 / mixed_ref=1 / me_range=32 / chroma_me=1 / trellis=2 / 8x8dct=1 / cqm=0 / deadzone=21,11 / fast_pskip=1 / chroma_qp_offset=-2 / threads=12 / lookahead_threads=2 / sliced_threads=0 / nr=0 / decimate=1 / interlaced=0 / bluray_compat=0 / constrained_intra=0 / bframes=8 / b_pyramid=2 / b_adapt=2 / b_bias=0 / direct=3 / weightb=1 / open_gop=0 / weightp=2 / keyint=250 / keyint_min=25 / scenecut=40 / intra_refresh=0 / rc_lookahead=50 / rc=2pass / mbtree=1 / bitrate=1500 / ratetol=1.0 / qcomp=0.60 / qpmin=0 / qpmax=69 / qpstep=4 / cplxblur=20.0 / qblur=0.5 / vbv_maxrate=62500 / vbv_bufsize=78125 / nal_hrd=none / filler=0 / ip_ratio=1.40 / aq=1:1.00
Default : Yes
Forced : No
Statistics Tags Issue : mkvmerge v8.5.2 ('Crosses') 32bit 2016-04-18 09:05:43 / mkvmerge v5.9.0 ('On The Loose') built on Dec 9 2012 15:37:01 2010-02-22 21:41:31
FromStats_BitRate : 1499358
FromStats_Duration : 01:26:29.240000000
FromStats_FrameCount : 129731
FromStats_StreamSize : 972566091
Audio
ID : 2
Format : AC-3
Format/Info : Audio Coding 3
Mode extension : CM (complete main)
Format settings, Endianness : Big
Codec ID : A_AC3
Duration : 1h 26mn
Bit rate mode : Constant
Bit rate : 384 Kbps
Channel(s) : 6 channels
Channel positions : Front: L C R, Side: L R, LFE
Sampling rate : 48.0 KHz
Frame rate : 31.250 fps (1536 spf)
Compression mode : Lossy
Delay relative to video : 200ms
Stream size : 238 MiB (20%)
Language : Russian
Default : Yes
Forced : No
raw [info]: 1024x576p 1:1 @ 25/1 fps (cfr)
x264 [info]: using SAR=1/1
x264 [info]: using cpu capabilities: MMX2 SSE2Fast SSSE3 SSE4.2 AVX
x264 [info]: profile High, level 4.1
x264 [info]: frame I:1270 Avg QP:15.79 size: 63215
x264 [info]: frame P:34103 Avg QP:19.19 size: 14993
x264 [info]: frame B:94358 Avg QP:21.47 size: 4038
x264 [info]: consecutive B-frames: 3.3% 4.0% 5.2% 66.9% 6.6% 10.1% 1.3% 2.1% 0.5%
x264 [info]: mb I I16..4: 9.0% 76.6% 14.4%
x264 [info]: mb P I16..4: 1.7% 8.9% 0.7% P16..4: 43.5% 13.7% 12.0% 0.3% 0.1% skip:19.2%
x264 [info]: mb B I16..4: 0.1% 0.8% 0.1% B16..8: 34.9% 5.2% 1.0% direct: 3.5% skip:54.4% L0:41.3% L1:49.5% BI: 9.2%
x264 [info]: 8x8 transform intra:79.0% inter:71.1%
x264 [info]: direct mvs spatial:97.2% temporal:2.8%
x264 [info]: coded y,uvDC,uvAC intra: 76.3% 64.0% 25.4% inter: 15.0% 14.3% 0.4%
x264 [info]: i16 v,h,dc,p: 27% 20% 7% 46%
x264 [info]: i8 v,h,dc,ddl,ddr,vr,hd,vl,hu: 11% 12% 6% 8% 12% 13% 13% 11% 13%
x264 [info]: i4 v,h,dc,ddl,ddr,vr,hd,vl,hu: 12% 11% 4% 8% 14% 14% 14% 11% 12%
x264 [info]: i8c dc,h,v,p: 42% 26% 16% 15%
x264 [info]: Weighted P-Frames: Y:3.8% UV:1.6%
x264 [info]: ref P L0: 54.1% 11.1% 15.7% 5.7% 4.5% 3.5% 3.2% 2.0% 0.2% 0.0%
x264 [info]: ref B L0: 81.5% 9.7% 4.2% 1.9% 1.3% 0.9% 0.5%
x264 [info]: ref B L1: 95.3% 4.7%
x264 [info]: kb/s:1499.36
encoded 129731 frames, 28.63 fps, 1499.36 kb/s



   Похожие торренты   Торрент   Размер 
В этой теме нет новых непрочитанных сообщений. Я - Стив МакКуин / I Am Steve McQueen (2014) HDTVRip 720p | P

1 | 1

2.65 ГБ

В этой теме нет новых непрочитанных сообщений. Как Стив Джобс изменил мир / The Way Steve Jobs Changed the World ( 2011) HDTVRip-AVC от F-Torrents

40 | 5

682.94 МБ

В этой теме нет новых непрочитанных сообщений. Стив Джобс / Steve Jobs (2015) DVDScr | L2

1438 | 55

2.06 ГБ

В этой теме нет новых непрочитанных сообщений. Стив Джобс / Steve Jobs (2015) DVDScr | L2

5061 | 173

1.37 ГБ

В этой теме нет новых непрочитанных сообщений. Стив Яблонски - Морской Бой / Steve Jablonsky - Battleship (2012) MP3

12 | 3

190.77 МБ

В этой теме нет новых непрочитанных сообщений. Стив Джобс / Steve Jobs (2015) BDRip-AVC | iTunes

1759 | 45

2.17 ГБ

В этой теме нет новых непрочитанных сообщений. Стив Джобс / Steve Jobs (2015) BDRip от HQ-ViDEO

66 | 0

2.18 ГБ




Вы не можете начинать темы
Вы не можете отвечать на сообщения
Вы не можете редактировать свои сообщения
Вы не можете удалять свои сообщения
Вы не можете добавлять вложения

Перейти:  
Для Мосгорсуда, Роскомнадзора и рекламодателей: mosgorsud-torrent[собачка]yandex.ru
 Вход
ppkBB3cker v.2 © 2008-2014 @ PPK
[ Time : 0.053s | 15 Queries | GZIP : Off ]

Торрент трекер RUTOR.IN, Не можете зайти на rutor.org? Какой новый адрес рутор? Какое зеркало рутор? Не работает rutor.org и зеркала? Тогда наш торрент специально для вас. Rutor.in неофициальное зеркало rutor. В случае если у Вас заблокирован rutor или вдруг Вы не можете на него зайти, то Вы без труда сможете скачать бесплатно и без рекламы последние новинки кино, игр, сериалов и прочего у нас, на Rutor.in. Не нужно использовать прокси, чтобы зайти на рутор, достаточно воспользоваться нашим ресурсом. Все новые фильмы, игры, сериалы, книги и музыка за 2013 и 2014 годы через торрент бесплатно. Скачивайте фильмы в хорошем качестве, игры для пк, xbox, playstation без регистрации. У нас вы найдете новые Зарубежные сериалы и Русские сериалы 2013, 2014, 2015 годов. Оставайтесь с нами, качайте любимые фильмы, игры, сериалы, книги и музыку.