img image001 image001 image001 image001 image001 image001 image001 image001 image001 image001 image001 image001 image001 image001 image001

Planets Sun Sun Sun
Статистика раздачи
Автор: Nickolas3434 | Размер: 2.65 ГБ | Добавлен: 20 апр 2016
Раздают: 1    Качают: 1
Скачать торрент
Скачать торрент
Описание торрента

СообщениеДобавлено: 20 апр 2016 

Я - Стив МакКуин / I Am Steve McQueen


#77
Год выпуска: 2014
Страна: Канада | Network Entertainment | McQueen Racing
Жанр: Документальный
Продолжительность: 1:26:29
Перевод: Профессиональный (многоголосый закадровый) | "Эй Би Видео" по заказу "Первого Канала"Режиссеры: Джефф Ренфро / Jeff Renfroe

Описание: Стив Маккуин – одна из ярчайших кинозвезд Голливуда прошлых лет. Мужественный вид, магнетизм «плохого парня» и сногсшибательная харизма выделяли Маккуина среди коллег по цеху. Стив вырос в маленьком городке в пригороде Индианаполиса, служил в морской пехоте США и стал одним из самых высокооплачиваемых и востребованных актеров своего поколения.


Автор рипа: lrn
Автор записи: Alexin29
Сэмпл: sendfile

Тип релиза: HDTVRip 720p
Контейнер: MKV
Видео: 1280x720 (16:9), 25,000 fps, H264, ~4000 kbps avg, ~0.174 bit/pixel
Аудио: 48 kHz, AC3 Dolby Digital, 3/2 (L,C,R,l,r) + LFE ch, ~384.00 kbps avg

General
Unique ID : 207570100329355223516399334072315757196 (0x9C288C13E1D1771EAA3B9734D507428C)
Complete name : E:uTorrent.TempTempI.Am.Steve.McQueen.2014.HDTVRip.720p.x264-RUS-lrn.mkv
Format : Matroska
Format version : Version 4 / Version 2
File size : 2.65 GiB
Duration : 1h 26mn
Overall bit rate : 4 385 Kbps
Movie name : I.Am.Steve.McQueen.2014.HDTVRip.720p.x264-RUS-lrn
Encoded date : UTC 2010-02-22 21:41:31
Writing application : mkvmerge v5.9.0 ('On The Loose') built on Dec 9 2012 15:37:01
Writing library : libebml v1.3.0 + libmatroska v1.4.0
Video
ID : 1
Format : AVC
Format/Info : Advanced Video Codec
Format profile : High@L4.1
Format settings, CABAC : Yes
Format settings, ReFrames : 8 frames
Codec ID : V_MPEG4/ISO/AVC
Duration : 1h 26mn
Bit rate : 4 000 Kbps
Width : 1 280 pixels
Height : 720 pixels
Display aspect ratio : 16:9
Frame rate mode : Constant
Frame rate : 25.000 fps
Color space : YUV
Chroma subsampling : 4:2:0
Bit depth : 8 bits
Scan type : Progressive
Bits/(Pixel*Frame) : 0.174
Stream size : 2.36 GiB (89%)
Writing library : x264 core 148 r2638 7599210
Encoding settings : cabac=1 / ref=8 / deblock=1:-3:-3 / analyse=0x3:0x133 / me=umh / subme=9 / psy=1 / psy_rd=1.00:0.00 / mixed_ref=1 / me_range=32 / chroma_me=1 / trellis=2 / 8x8dct=1 / cqm=0 / deadzone=21,11 / fast_pskip=1 / chroma_qp_offset=-2 / threads=12 / lookahead_threads=2 / sliced_threads=0 / nr=0 / decimate=1 / interlaced=0 / bluray_compat=0 / constrained_intra=0 / bframes=8 / b_pyramid=2 / b_adapt=2 / b_bias=0 / direct=3 / weightb=1 / open_gop=0 / weightp=2 / keyint=250 / keyint_min=25 / scenecut=40 / intra_refresh=0 / rc_lookahead=50 / rc=2pass / mbtree=1 / bitrate=4000 / ratetol=1.0 / qcomp=0.60 / qpmin=0 / qpmax=69 / qpstep=4 / cplxblur=20.0 / qblur=0.5 / vbv_maxrate=62500 / vbv_bufsize=78125 / nal_hrd=none / filler=0 / ip_ratio=1.40 / aq=1:1.00
Default : Yes
Forced : No
Statistics Tags Issue : mkvmerge v8.5.2 ('Crosses') 32bit 2016-04-18 07:14:59 / mkvmerge v5.9.0 ('On The Loose') built on Dec 9 2012 15:37:01 2010-02-22 21:41:31
FromStats_BitRate : 3999394
FromStats_Duration : 01:26:29.240000000
FromStats_FrameCount : 129731
FromStats_StreamSize : 2594226959
Audio
ID : 2
Format : AC-3
Format/Info : Audio Coding 3
Mode extension : CM (complete main)
Format settings, Endianness : Big
Codec ID : A_AC3
Duration : 1h 26mn
Bit rate mode : Constant
Bit rate : 384 Kbps
Channel(s) : 6 channels
Channel positions : Front: L C R, Side: L R, LFE
Sampling rate : 48.0 KHz
Frame rate : 31.250 fps (1536 spf)
Compression mode : Lossy
Delay relative to video : 200ms
Stream size : 238 MiB (9%)
Language : Russian
Default : Yes
Forced : No
raw [info]: 1280x720p 1:1 @ 25/1 fps (cfr)
x264 [info]: using SAR=1/1
x264 [info]: using cpu capabilities: MMX2 SSE2Fast SSSE3 SSE4.2 AVX
x264 [info]: profile High, level 4.1
x264 [info]: frame I:1216 Avg QP:12.38 size:122316
x264 [info]: frame P:35006 Avg QP:15.62 size: 39046
x264 [info]: frame B:93509 Avg QP:17.35 size: 11535
x264 [info]: consecutive B-frames: 3.5% 4.4% 4.7% 72.3% 5.4% 7.2% 0.9% 1.3% 0.3%
x264 [info]: mb I I16..4: 5.9% 79.4% 14.7%
x264 [info]: mb P I16..4: 1.4% 14.2% 1.1% P16..4: 38.4% 22.7% 13.3% 0.6% 0.2% skip: 8.2%
x264 [info]: mb B I16..4: 0.1% 1.6% 0.1% B16..8: 33.9% 10.0% 2.1% direct: 8.6% skip:43.5% L0:40.3% L1:45.4% BI:14.3%
x264 [info]: 8x8 transform intra:84.9% inter:60.0%
x264 [info]: direct mvs spatial:99.1% temporal:0.9%
x264 [info]: coded y,uvDC,uvAC intra: 85.5% 75.2% 46.5% inter: 25.9% 24.4% 2.2%
x264 [info]: i16 v,h,dc,p: 31% 16% 7% 46%
x264 [info]: i8 v,h,dc,ddl,ddr,vr,hd,vl,hu: 13% 14% 8% 7% 10% 12% 11% 11% 13%
x264 [info]: i4 v,h,dc,ddl,ddr,vr,hd,vl,hu: 13% 12% 5% 8% 13% 14% 12% 11% 11%
x264 [info]: i8c dc,h,v,p: 46% 24% 17% 14%
x264 [info]: Weighted P-Frames: Y:3.3% UV:1.4%
x264 [info]: ref P L0: 55.0% 9.4% 16.1% 5.9% 4.7% 3.5% 3.2% 2.1% 0.2% 0.0%
x264 [info]: ref B L0: 81.1% 10.4% 3.9% 1.9% 1.4% 0.9% 0.5%
x264 [info]: ref B L1: 95.9% 4.1%
x264 [info]: kb/s:3999.39
encoded 129731 frames, 15.19 fps, 3999.39 kb/s



   Похожие торренты   Торрент   Размер 
В этой теме нет новых непрочитанных сообщений. Я - Стив МакКуин / I Am Steve McQueen (2014) HDTVRip-AVC | P

0 | 0

1.14 ГБ

В этой теме нет новых непрочитанных сообщений. Стив Джобс / Steve Jobs (2015) BDRip 720p | iTunes

711 | 19

7.28 ГБ

В этой теме нет новых непрочитанных сообщений. Как Стив Джобс изменил мир / The Way Steve Jobs Changed the World ( 2011) HDTVRip-AVC от F-Torrents

40 | 5

682.94 МБ

В этой теме нет новых непрочитанных сообщений. Стив Джобс / Steve Jobs (2015) BDRip 720p от ExKinoRay | Line

250 | 8

7.44 ГБ

В этой теме нет новых непрочитанных сообщений. Стив Джобс / Steve Jobs (2015) BDRip 720p | Чистый звук

1756 | 72

5.63 ГБ

В этой теме нет новых непрочитанных сообщений. Стив Джобс / Steve Jobs (2015) BDRip 720p от Scarabey | Line

859 | 41

7.47 ГБ

В этой теме нет новых непрочитанных сообщений. Стив Джобс / Steve Jobs (2015) BDRip 720p от Scarabey | Чистый звук

383 | 14

7.57 ГБ




Вы не можете начинать темы
Вы не можете отвечать на сообщения
Вы не можете редактировать свои сообщения
Вы не можете удалять свои сообщения
Вы не можете добавлять вложения

Перейти:  
Для Мосгорсуда, Роскомнадзора и рекламодателей: mosgorsud-torrent[собачка]yandex.ru
 Вход
ppkBB3cker v.2 © 2008-2014 @ PPK
[ Time : 0.052s | 16 Queries | GZIP : Off ]

cron