img image001 image001 image001 image001 image001 image001 image001 image001 image001 image001 image001 image001 image001 image001 image001

Planets Sun Sun Sun
Статистика раздачи
Автор: Nickolas3434 | Размер: 1.51 ГБ | Добавлен: 20 апр 2016
Раздают: 2    Качают: 0
Скачать торрент
Скачать торрент
Описание торрента

СообщениеДобавлено: 20 апр 2016 

Мистер Динамит: Восхождение Джеймса Брауна / Mr. Dynamite: The Rise of James Brown


#77
Год выпуска: 2014
Страна: США | Inaudible Films | Jagged Films | Jigsaw Productions
Жанр: Документальный
Продолжительность: 1:54:43
Перевод: Профессиональный (многоголосый закадровый) | "Эй Би Видео" по заказу "Первого Канала"
Режиссеры: Алекс Гибни / Alex Gibney

Описание: Документальный фильм «Мистер Динамит: Восхождение Джеймса Брауна» предоставляет нам удивительную возможность проникнуть в суть эволюционного развития музыки Брауна. Кроме невероятных фрагментов из разных живых концертов, включая знаменитый “T.A.M.I. Show", где Браун перещеголял самих Rolling Stones, документальный фильм «Мистер Динамит: Восхождение Джеймса Брауна» предоставляет нам удивительную возможность проникнуть в суть эволюционного развития музыки Брауна. Картина рассказывает о жизни Джеймса Брауна в период с 1950 по 1970 годы, именно это время называют классическим периодом жизни "Крестного отца" соула.


Автор рипа: lrn
Автор записи: Alexin29
Сэмпл: sendfile

Тип релиза: HDTVRip-AVC
Контейнер: MKV
Видео: 1024x576 (16:9), 25,000 fps, H264, ~1500 kbps avg, ~0.102 bit/pixel
Аудио: 48 kHz, AC3 Dolby Digital, 3/2 (L,C,R,l,r) + LFE ch, ~384.00 kbps avg

General
Unique ID : 171433208371478300054953422053232549198 (0x80F8D5BF0DCA40908BD56FF95C8B1D4E)
Complete name : E:uTorrent.TempTempMr.Dynamite.The.Rise.of.James.Brown.2014.HDTVRip-AVC.x264-RUS-lrn.mkv
Format : Matroska
Format version : Version 4 / Version 2
File size : 1.51 GiB
Duration : 1h 54mn
Overall bit rate : 1 886 Kbps
Movie name : Mr.Dynamite.The.Rise.of.James.Brown.2014.HDTVRip-AVC.x264-RUS-lrn
Encoded date : UTC 2010-02-22 21:41:31
Writing application : mkvmerge v5.9.0 ('On The Loose') built on Dec 9 2012 15:37:01
Writing library : libebml v1.3.0 + libmatroska v1.4.0
Video
ID : 1
Format : AVC
Format/Info : Advanced Video Codec
Format profile : High@L4.1
Format settings, CABAC : Yes
Format settings, ReFrames : 8 frames
Codec ID : V_MPEG4/ISO/AVC
Duration : 1h 54mn
Bit rate : 1 500 Kbps
Width : 1 024 pixels
Height : 576 pixels
Display aspect ratio : 16:9
Frame rate mode : Constant
Frame rate : 25.000 fps
Color space : YUV
Chroma subsampling : 4:2:0
Bit depth : 8 bits
Scan type : Progressive
Bits/(Pixel*Frame) : 0.102
Stream size : 1.17 GiB (78%)
Writing library : x264 core 148 r2638 7599210
Encoding settings : cabac=1 / ref=8 / deblock=1:-3:-3 / analyse=0x3:0x133 / me=umh / subme=9 / psy=1 / psy_rd=1.00:0.00 / mixed_ref=1 / me_range=32 / chroma_me=1 / trellis=2 / 8x8dct=1 / cqm=0 / deadzone=21,11 / fast_pskip=1 / chroma_qp_offset=-2 / threads=12 / lookahead_threads=2 / sliced_threads=0 / nr=0 / decimate=1 / interlaced=0 / bluray_compat=0 / constrained_intra=0 / bframes=8 / b_pyramid=2 / b_adapt=2 / b_bias=0 / direct=3 / weightb=1 / open_gop=0 / weightp=2 / keyint=250 / keyint_min=25 / scenecut=40 / intra_refresh=0 / rc_lookahead=50 / rc=2pass / mbtree=1 / bitrate=1500 / ratetol=1.0 / qcomp=0.60 / qpmin=0 / qpmax=69 / qpstep=4 / cplxblur=20.0 / qblur=0.5 / vbv_maxrate=62500 / vbv_bufsize=78125 / nal_hrd=none / filler=0 / ip_ratio=1.40 / aq=1:1.00
Default : Yes
Forced : No
Statistics Tags Issue : mkvmerge v8.5.2 ('Crosses') 32bit 2016-04-18 15:21:31 / mkvmerge v5.9.0 ('On The Loose') built on Dec 9 2012 15:37:01 2010-02-22 21:41:31
FromStats_BitRate : 1499925
FromStats_Duration : 01:54:43.840000000
FromStats_FrameCount : 172096
FromStats_StreamSize : 1290656211
Audio
ID : 2
Format : AC-3
Format/Info : Audio Coding 3
Mode extension : CM (complete main)
Format settings, Endianness : Big
Codec ID : A_AC3
Duration : 1h 54mn
Bit rate mode : Constant
Bit rate : 384 Kbps
Channel(s) : 6 channels
Channel positions : Front: L C R, Side: L R, LFE
Sampling rate : 48.0 KHz
Frame rate : 31.250 fps (1536 spf)
Compression mode : Lossy
Delay relative to video : 200ms
Stream size : 315 MiB (20%)
Language : Russian
Default : Yes
Forced : No
raw [info]: 1024x576p 1:1 @ 25/1 fps (cfr)
x264 [info]: using SAR=1/1
x264 [info]: using cpu capabilities: MMX2 SSE2Fast SSSE3 SSE4.2 AVX
x264 [info]: profile High, level 4.1
x264 [info]: frame I:1555 Avg QP:15.28 size: 60838
x264 [info]: frame P:43278 Avg QP:19.34 size: 13495
x264 [info]: frame B:127263 Avg QP:21.85 size: 4809
x264 [info]: consecutive B-frames: 2.0% 3.8% 4.9% 67.1% 7.4% 10.7% 1.0% 2.4% 0.7%
x264 [info]: mb I I16..4: 13.6% 71.1% 15.3%
x264 [info]: mb P I16..4: 1.3% 8.4% 0.7% P16..4: 36.7% 11.9% 9.2% 0.2% 0.1% skip:31.4%
x264 [info]: mb B I16..4: 0.1% 1.0% 0.1% B16..8: 29.1% 6.9% 1.5% direct: 4.2% skip:57.1% L0:43.1% L1:46.8% BI:10.1%
x264 [info]: 8x8 transform intra:79.6% inter:78.6%
x264 [info]: direct mvs spatial:97.3% temporal:2.7%
x264 [info]: coded y,uvDC,uvAC intra: 75.1% 47.4% 22.1% inter: 16.5% 12.7% 0.7%
x264 [info]: i16 v,h,dc,p: 49% 12% 7% 32%
x264 [info]: i8 v,h,dc,ddl,ddr,vr,hd,vl,hu: 15% 8% 7% 8% 12% 14% 11% 13% 11%
x264 [info]: i4 v,h,dc,ddl,ddr,vr,hd,vl,hu: 17% 8% 5% 8% 13% 15% 12% 11% 11%
x264 [info]: i8c dc,h,v,p: 59% 14% 13% 14%
x264 [info]: Weighted P-Frames: Y:3.7% UV:0.9%
x264 [info]: ref P L0: 49.4% 9.8% 16.2% 6.8% 5.7% 4.7% 4.2% 2.8% 0.3% 0.0%
x264 [info]: ref B L0: 76.5% 10.7% 5.4% 2.9% 2.2% 1.5% 0.8%
x264 [info]: ref B L1: 94.7% 5.3%
x264 [info]: kb/s:1499.92
encoded 172096 frames, 29.73 fps, 1499.92 kb/s



   Похожие торренты   Торрент   Размер 
В этой теме нет новых непрочитанных сообщений. Мистер Динамит: Восхождение Джеймса Брауна / Mr. Dynamite: The Rise of James Brown (2014) HDTVRip 720p | P

0 | 2

3.51 ГБ

В этой теме нет новых непрочитанных сообщений. Discovery. Апокалипсис Деррена Брауна / Derren Brown apocalypse [01-02 из 02] (2012) HDTVRip от HitWay | P1

47 | 14

1.06 ГБ

В этой теме нет новых непрочитанных сообщений. Discovery. Апокалипсис Деррена Брауна / Derren Brown apocalypse [01] (2012) HDTVRip от HitWay | P1

45 | 6

543.89 МБ

В этой теме нет новых непрочитанных сообщений. Джек-Динамит / Dynamite Jack (1961) DVDRip | P1

20 | 12

1.51 ГБ

В этой теме нет новых непрочитанных сообщений. Двойной динамит / Double Dynamite (1951) DVDRip | L1

50 | 112

913.72 МБ

В этой теме нет новых непрочитанных сообщений. Черный динамит / Black Dynamite (2009) ВDRip | L1

53 | 26

1.46 ГБ

В этой теме нет новых непрочитанных сообщений. Черный динамит / Black Dynamite (2009) HDRip

12 | 2

1.36 ГБ




Вы не можете начинать темы
Вы не можете отвечать на сообщения
Вы не можете редактировать свои сообщения
Вы не можете удалять свои сообщения
Вы не можете добавлять вложения

Перейти:  
Для Мосгорсуда, Роскомнадзора и рекламодателей: mosgorsud-torrent[собачка]yandex.ru
 Вход
ppkBB3cker v.2 © 2008-2014 @ PPK
[ Time : 0.520s | 15 Queries | GZIP : Off ]

Торрент трекер RUTOR.IN, Не можете зайти на rutor.org? Какой новый адрес рутор? Какое зеркало рутор? Не работает rutor.org и зеркала? Тогда наш торрент специально для вас. Rutor.in неофициальное зеркало rutor. В случае если у Вас заблокирован rutor или вдруг Вы не можете на него зайти, то Вы без труда сможете скачать бесплатно и без рекламы последние новинки кино, игр, сериалов и прочего у нас, на Rutor.in. Не нужно использовать прокси, чтобы зайти на рутор, достаточно воспользоваться нашим ресурсом. Все новые фильмы, игры, сериалы, книги и музыка за 2013 и 2014 годы через торрент бесплатно. Скачивайте фильмы в хорошем качестве, игры для пк, xbox, playstation без регистрации. У нас вы найдете новые Зарубежные сериалы и Русские сериалы 2013, 2014, 2015 годов. Оставайтесь с нами, качайте любимые фильмы, игры, сериалы, книги и музыку.