img image001 image001 image001 image001 image001 image001 image001 image001 image001 image001 image001 image001 image001 image001 image001

Planets Sun Sun Sun
Статистика раздачи
Автор: Nickolas3434 | Размер: 3.51 ГБ | Добавлен: 20 апр 2016
Раздают: 0    Качают: 2
Скачать торрент
Скачать торрент
Описание торрента

СообщениеДобавлено: 20 апр 2016 

Мистер Динамит: Восхождение Джеймса Брауна / Mr. Dynamite: The Rise of James Brown


#77
Год выпуска: 2014
Страна: США | Inaudible Films | Jagged Films | Jigsaw Productions
Жанр: Документальный
Продолжительность: 1:54:43
Перевод: Профессиональный (многоголосый закадровый) | "Эй Би Видео" по заказу "Первого Канала"
Режиссеры: Алекс Гибни / Alex Gibney

Описание: Документальный фильм «Мистер Динамит: Восхождение Джеймса Брауна» предоставляет нам удивительную возможность проникнуть в суть эволюционного развития музыки Брауна. Кроме невероятных фрагментов из разных живых концертов, включая знаменитый “T.A.M.I. Show", где Браун перещеголял самих Rolling Stones, документальный фильм «Мистер Динамит: Восхождение Джеймса Брауна» предоставляет нам удивительную возможность проникнуть в суть эволюционного развития музыки Брауна. Картина рассказывает о жизни Джеймса Брауна в период с 1950 по 1970 годы, именно это время называют классическим периодом жизни "Крестного отца" соула.


Автор рипа: lrn
Автор записи: Alexin29
Сэмпл: sendfile

Тип релиза: HDTVRip 720p
Контейнер: MKV
Видео: 1280x720 (16:9), 25,000 fps, H264, ~4000 kbps avg, ~0.174 bit/pixel
Аудио: 48 kHz, AC3 Dolby Digital, 3/2 (L,C,R,l,r) + LFE ch, ~384.00 kbps avg

General
Unique ID : 191914147467624978974922299066724088892 (0x9061520189561D7384926E0B1E7B7C3C)
Complete name : E:uTorrent.TempTempMr.Dynamite.The.Rise.of.James.Brown.2014.HDTVRip.720p.x264-RUS-lrn.mkv
Format : Matroska
Format version : Version 4 / Version 2
File size : 3.51 GiB
Duration : 1h 54mn
Overall bit rate : 4 386 Kbps
Movie name : Mr.Dynamite.The.Rise.of.James.Brown.2014.HDTVRip.720p.x264-RUS-lrn
Encoded date : UTC 2010-02-22 21:41:31
Writing application : mkvmerge v5.9.0 ('On The Loose') built on Dec 9 2012 15:37:01
Writing library : libebml v1.3.0 + libmatroska v1.4.0
Video
ID : 1
Format : AVC
Format/Info : Advanced Video Codec
Format profile : High@L4.1
Format settings, CABAC : Yes
Format settings, ReFrames : 8 frames
Codec ID : V_MPEG4/ISO/AVC
Duration : 1h 54mn
Bit rate : 4 000 Kbps
Width : 1 280 pixels
Height : 720 pixels
Display aspect ratio : 16:9
Frame rate mode : Constant
Frame rate : 25.000 fps
Color space : YUV
Chroma subsampling : 4:2:0
Bit depth : 8 bits
Scan type : Progressive
Bits/(Pixel*Frame) : 0.174
Stream size : 3.14 GiB (89%)
Writing library : x264 core 148 r2638 7599210
Encoding settings : cabac=1 / ref=8 / deblock=1:-3:-3 / analyse=0x3:0x133 / me=umh / subme=9 / psy=1 / psy_rd=1.00:0.00 / mixed_ref=1 / me_range=32 / chroma_me=1 / trellis=2 / 8x8dct=1 / cqm=0 / deadzone=21,11 / fast_pskip=1 / chroma_qp_offset=-2 / threads=12 / lookahead_threads=2 / sliced_threads=0 / nr=0 / decimate=1 / interlaced=0 / bluray_compat=0 / constrained_intra=0 / bframes=8 / b_pyramid=2 / b_adapt=2 / b_bias=0 / direct=3 / weightb=1 / open_gop=0 / weightp=2 / keyint=250 / keyint_min=25 / scenecut=40 / intra_refresh=0 / rc_lookahead=50 / rc=2pass / mbtree=1 / bitrate=4000 / ratetol=1.0 / qcomp=0.60 / qpmin=0 / qpmax=69 / qpstep=4 / cplxblur=20.0 / qblur=0.5 / vbv_maxrate=62500 / vbv_bufsize=78125 / nal_hrd=none / filler=0 / ip_ratio=1.40 / aq=1:1.00
Default : Yes
Forced : No
Statistics Tags Issue : mkvmerge v8.5.2 ('Crosses') 32bit 2016-04-18 12:57:49 / mkvmerge v5.9.0 ('On The Loose') built on Dec 9 2012 15:37:01 2010-02-22 21:41:31
FromStats_BitRate : 3999821
FromStats_Duration : 01:54:43.840000000
FromStats_FrameCount : 172096
FromStats_StreamSize : 3441766357
Audio
ID : 2
Format : AC-3
Format/Info : Audio Coding 3
Mode extension : CM (complete main)
Format settings, Endianness : Big
Codec ID : A_AC3
Duration : 1h 54mn
Bit rate mode : Constant
Bit rate : 384 Kbps
Channel(s) : 6 channels
Channel positions : Front: L C R, Side: L R, LFE
Sampling rate : 48.0 KHz
Frame rate : 31.250 fps (1536 spf)
Compression mode : Lossy
Delay relative to video : 200ms
Stream size : 315 MiB (9%)
Language : Russian
Default : Yes
Forced : No
raw [info]: 1280x720p 1:1 @ 25/1 fps (cfr)
x264 [info]: using SAR=1/1
x264 [info]: using cpu capabilities: MMX2 SSE2Fast SSSE3 SSE4.2 AVX
x264 [info]: profile High, level 4.1
x264 [info]: frame I:1510 Avg QP:11.31 size:117408
x264 [info]: frame P:44319 Avg QP:15.57 size: 34800
x264 [info]: frame B:126267 Avg QP:17.48 size: 13639
x264 [info]: consecutive B-frames: 2.1% 4.4% 4.6% 71.1% 5.9% 8.6% 0.8% 2.0% 0.5%
x264 [info]: mb I I16..4: 14.3% 69.4% 16.3%
x264 [info]: mb P I16..4: 1.3% 13.0% 1.0% P16..4: 33.6% 18.1% 10.4% 0.3% 0.1% skip:22.1%
x264 [info]: mb B I16..4: 0.1% 2.0% 0.1% B16..8: 28.4% 11.4% 2.6% direct: 8.7% skip:46.5% L0:42.8% L1:43.3% BI:13.9%
x264 [info]: 8x8 transform intra:83.6% inter:67.0%
x264 [info]: direct mvs spatial:98.1% temporal:1.9%
x264 [info]: coded y,uvDC,uvAC intra: 83.9% 54.4% 37.5% inter: 28.1% 19.7% 2.8%
x264 [info]: i16 v,h,dc,p: 59% 9% 7% 25%
x264 [info]: i8 v,h,dc,ddl,ddr,vr,hd,vl,hu: 16% 10% 8% 7% 10% 13% 11% 12% 12%
x264 [info]: i4 v,h,dc,ddl,ddr,vr,hd,vl,hu: 17% 9% 6% 8% 13% 15% 11% 11% 10%
x264 [info]: i8c dc,h,v,p: 61% 14% 13% 12%
x264 [info]: Weighted P-Frames: Y:3.0% UV:0.7%
x264 [info]: ref P L0: 51.8% 8.1% 15.6% 7.0% 5.5% 4.7% 4.0% 3.0% 0.2% 0.0%
x264 [info]: ref B L0: 76.4% 10.9% 5.3% 2.8% 2.3% 1.5% 0.8%
x264 [info]: ref B L1: 95.3% 4.7%
x264 [info]: kb/s:3999.82
encoded 172096 frames, 15.91 fps, 3999.82 kb/s



   Похожие торренты   Торрент   Размер 
В этой теме нет новых непрочитанных сообщений. Мистер Динамит: Восхождение Джеймса Брауна / Mr. Dynamite: The Rise of James Brown (2014) HDTVRip-AVC | P

2 | 0

1.51 ГБ

В этой теме нет новых непрочитанных сообщений. Наполеон Динамит / Napoleon Dynamite (2004) BDRip 720p | P, P2, A

21 | 6

5.12 ГБ

В этой теме нет новых непрочитанных сообщений. Леди Динамит / Lady Dynamite [S01] (2016) WEBRip 720p | IdeaFilm

6 | 6

12.06 ГБ

В этой теме нет новых непрочитанных сообщений. Леди Динамит/ Lady Dynamite [01x01-02 из 12] (2016) WEBRip 720p | IdeaFilm

0 | 10

2.03 ГБ

В этой теме нет новых непрочитанных сообщений. Леди Динамит/ Lady Dynamite [01x01-04 из 12] (2016) WEBRip 720p | IdeaFilm

0 | 0

3.98 ГБ

В этой теме нет новых непрочитанных сообщений. Discovery. Апокалипсис Деррена Брауна / Derren Brown apocalypse [01] (2012) HDTVRip от HitWay | P1

45 | 6

543.89 МБ

В этой теме нет новых непрочитанных сообщений. Discovery. Апокалипсис Деррена Брауна / Derren Brown apocalypse [01-02 из 02] (2012) HDTVRip от HitWay | P1

47 | 14

1.06 ГБ




Вы не можете начинать темы
Вы не можете отвечать на сообщения
Вы не можете редактировать свои сообщения
Вы не можете удалять свои сообщения
Вы не можете добавлять вложения

Перейти:  
Для Мосгорсуда, Роскомнадзора и рекламодателей: mosgorsud-torrent[собачка]yandex.ru
 Вход
ppkBB3cker v.2 © 2008-2014 @ PPK
[ Time : 0.068s | 15 Queries | GZIP : Off ]

Торрент трекер RUTOR.IN, Не можете зайти на rutor.org? Какой новый адрес рутор? Какое зеркало рутор? Не работает rutor.org и зеркала? Тогда наш торрент специально для вас. Rutor.in неофициальное зеркало rutor. В случае если у Вас заблокирован rutor или вдруг Вы не можете на него зайти, то Вы без труда сможете скачать бесплатно и без рекламы последние новинки кино, игр, сериалов и прочего у нас, на Rutor.in. Не нужно использовать прокси, чтобы зайти на рутор, достаточно воспользоваться нашим ресурсом. Все новые фильмы, игры, сериалы, книги и музыка за 2013 и 2014 годы через торрент бесплатно. Скачивайте фильмы в хорошем качестве, игры для пк, xbox, playstation без регистрации. У нас вы найдете новые Зарубежные сериалы и Русские сериалы 2013, 2014, 2015 годов. Оставайтесь с нами, качайте любимые фильмы, игры, сериалы, книги и музыку.