img image001 image001 image001 image001 image001 image001 image001 image001 image001 image001 image001 image001 image001 image001 image001

Planets Sun Sun Sun
Статистика раздачи
Автор: Nickolas3434 | Размер: 371.66 МБ | Добавлен: 22 апр 2016
Раздают: 24    Качают: 1
Скачать торрент
Скачать торрент
Описание торрента

СообщениеДобавлено: 22 апр 2016 

Страна: Россия
Производство: Телеканал «Россия»
Жанр: авторский
Год выпуска: 2016
Продолжительность: 00:27:46
Перевод: Не требуется
Cубтитры: нет
Оригинальная аудиодорожка: русский
Режиссер: Александр Рогаткин
В создании фильма учавствовали:
Александр Рогаткин...
Описание:
Сначала многие считали, что в ИГИЛ царят понятные им порядки. Но потом, увидев казни, насилие и убийства, распрощались с иллюзиями. Сейчас многие используют все возможности для того, чтобы бежать из городов, подконтрольных "Исламскому государству Ирака и Леванта".





Источник: DVB
Качество видео: SATRip
Формат видео: AVI
Видео: 720x432 (5:3), 25 fps, XviD ~ 1669 kbps avg, 0.215 bit/pixel
Аудио: 48 kHz, Dolby Digital AC3 2.0, 192 kbps
Раздача от:
Общее
Полное имя : Pobeg.iz.chernogo.Halifata.SATRip_[New-team]_by_AVP_Studio.avi
Формат : AVI
Формат/Информация : Audio Video Interleave
Размер файла : 372 Мбайт
Продолжительность : 27 м.
Общий поток : 1871 Кбит/сек
Программа кодирования : VirtualDubMod 1.5.10.3 | www.virtualdub-fr.org || (build 2550/release)
Библиотека кодирования : VirtualDubMod build 2550/release
Видео
Идентификатор : 0
Формат : MPEG-4 Visual
Профиль формата : Advanced Simple@L5
Параметр BVOP формата : 1
Параметр QPel формата : Нет
Параметр GMC формата : Без точки перехода
Параметр матрицы формата : Выборочная
Идентификатор кодека : XVID
Идентификатор кодека/Подсказка : XviD
Продолжительность : 27 м.
Битрейт : 1669 Кбит/сек
Ширина : 720 пикселей
Высота : 432 пикселя
Соотношение сторон : 5:3
Частота кадров : 25,000 кадров/сек
Цветовое пространство : YUV
Субдискретизация насыщенности : 4:2:0
Битовая глубина : 8 бит
Тип развёртки : Прогрессивная
Метод сжатия : С потерями
Бит/(Пиксели*Кадры) : 0.215
Размер потока : 332 Мбайт (89%)
Библиотека кодирования : XviD 1.2.1 (UTC 2008-12-04)
Аудио
Идентификатор : 1
Формат : AC-3
Формат/Информация : Audio Coding 3
Расширение режима : CM (complete main)
Параметр Endianness формата : Big
Идентификатор кодека : 2000
Продолжительность : 27 м.
Вид битрейта : Постоянный
Битрейт : 192 Кбит/сек
Каналы : 2 канала
Расположение каналов : Front: L R
Частота : 48,0 КГц
Частота кадров : 31,250 кадров/сек (1536 spf)
Метод сжатия : С потерями
Размер потока : 38,1 Мбайт (10%)
Выравнивание : Разделение по промежуткам
Продолжительность промежутка : 40 мс. (1,00 видеокадр)
Время предзагрузки промежутка : 500 мс





   Похожие торренты   Торрент   Размер 
В этой теме нет новых непрочитанных сообщений. Побег из черного Халифата (2016) SATRip-AVC от New-Team

17 | 7

372.38 МБ

В этой теме нет новых непрочитанных сообщений. Орден Чёрного Орла / Закон Чёрного Орла / The Order of the Black Eagle (1987) SATRip | НТВ+

0 | 4

1.44 ГБ

В этой теме нет новых непрочитанных сообщений. Побег из тюрьмы: Финальный побег / Prison Break: The Final Break (2009) BDRip 720p от NOLIMITS-TEAM

67 | 30

2.26 ГБ

В этой теме нет новых непрочитанных сообщений. Nat Geo Wild: Дунай. Европейская Амазонка. От Чёрного леса до Чёрного моря / Danube. Europe`s Amazon (2012) HDTV 1080i

2 | 14

3.46 ГБ

В этой теме нет новых непрочитанных сообщений. Побег / Побег [01x04] (2010) SATRip

0 | 2

522.54 МБ

В этой теме нет новых непрочитанных сообщений. Орден Чёрного Орла / Закон Чёрного Орла / The Order of the Black Eagle (1987) TVRip | НТВ+

0 | 2

4.02 ГБ

В этой теме нет новых непрочитанных сообщений. Возвращение Чёрного скакуна / The Black Stallion Returns (1983) WEB-DLRip от New-Team | P2

21 | 8

1.46 ГБ




Вы не можете начинать темы
Вы не можете отвечать на сообщения
Вы не можете редактировать свои сообщения
Вы не можете удалять свои сообщения
Вы не можете добавлять вложения

Перейти:  
Для Мосгорсуда, Роскомнадзора и рекламодателей: mosgorsud-torrent[собачка]yandex.ru
 Вход
ppkBB3cker v.2 © 2008-2014 @ PPK
[ Time : 2.947s | 15 Queries | GZIP : Off ]

Торрент трекер RUTOR.IN, Не можете зайти на rutor.org? Какой новый адрес рутор? Какое зеркало рутор? Не работает rutor.org и зеркала? Тогда наш торрент специально для вас. Rutor.in неофициальное зеркало rutor. В случае если у Вас заблокирован rutor или вдруг Вы не можете на него зайти, то Вы без труда сможете скачать бесплатно и без рекламы последние новинки кино, игр, сериалов и прочего у нас, на Rutor.in. Не нужно использовать прокси, чтобы зайти на рутор, достаточно воспользоваться нашим ресурсом. Все новые фильмы, игры, сериалы, книги и музыка за 2013 и 2014 годы через торрент бесплатно. Скачивайте фильмы в хорошем качестве, игры для пк, xbox, playstation без регистрации. У нас вы найдете новые Зарубежные сериалы и Русские сериалы 2013, 2014, 2015 годов. Оставайтесь с нами, качайте любимые фильмы, игры, сериалы, книги и музыку.