img image001 image001 image001 image001 image001 image001 image001 image001 image001 image001 image001 image001 image001 image001 image001

Planets Sun Sun Sun
Статистика раздачи
Автор: Nickolas3434 | Размер: 372.38 МБ | Добавлен: 22 апр 2016
Раздают: 17    Качают: 7
Скачать торрент
Скачать торрент
Описание торрента

СообщениеДобавлено: 22 апр 2016 

Страна: Россия
Производство: Телеканал «Россия»
Жанр: авторский
Год выпуска: 2016
Продолжительность: 00:27:46
Перевод: Не требуется
Cубтитры: нет
Оригинальная аудиодорожка: русский
Режиссер: Александр Рогаткин
В создании фильма учавствовали:
Александр Рогаткин...
Описание:
Сначала многие считали, что в ИГИЛ царят понятные им порядки. Но потом, увидев казни, насилие и убийства, распрощались с иллюзиями. Сейчас многие используют все возможности для того, чтобы бежать из городов, подконтрольных "Исламскому государству Ирака и Леванта".





Источник: DVB
Качество видео: SATRip-AVC
Формат видео: MKV
Видео: 720->816x490 (5:3), 25 fps, H264 ~ 1680 kbps avg, 0.190 bit/pixel
Аудио: 48 kHz, Dolby Digital AC3 2.0, 192 kbps
Раздача от:
Общее
Полное имя : Pobeg.iz.chernogo.Halifata.SATRip-AVC_[New-team]_by_AVP_Studio.mkv
Формат : Matroska
Версия формата : Version 2
Размер файла : 372 Мбайт
Продолжительность : 27 м.
Общий поток : 1874 Кбит/сек
Дата кодирования : UTC 2016-04-20 12:50:20
Программа кодирования : mkvmerge v6.1.0 ('Old Devil') built on Mar 4 2013 09:10:42
Библиотека кодирования : libebml v1.3.0 + libmatroska v1.4.0
Видео
Идентификатор : 1
Формат : AVC
Формат/Информация : Advanced Video Codec
Профиль формата : High@L4.1
Параметр CABAC формата : Да
Параметр ReFrames формата : 10 кадров
Идентификатор кодека : V_MPEG4/ISO/AVC
Продолжительность : 27 м.
Битрейт : 1680 Кбит/сек
Ширина : 720 пикселей
Высота : 490 пикселей
Соотношение сторон : 5:3
Режим частоты кадров : Постоянный
Частота кадров : 25,000 кадров/сек
Цветовое пространство : YUV
Субдискретизация насыщенности : 4:2:0
Битовая глубина : 8 бит
Тип развёртки : Прогрессивная
Бит/(Пиксели*Кадры) : 0.190
Размер потока : 327 Мбайт (88%)
Библиотека кодирования : x264 core 148 r2597 e86f3a1
Настройки программы : cabac=1 / ref=10 / deblock=1:-3:-2 / analyse=0x3:0x113 / me=umh / subme=10 / psy=1 / psy_rd=1.00:0.00 / mixed_ref=1 / me_range=32 / chroma_me=1 / trellis=2 / 8x8dct=1 / cqm=0 / deadzone=21,11 / fast_pskip=1 / chroma_qp_offset=-2 / threads=6 / lookahead_threads=1 / sliced_threads=0 / nr=0 / decimate=0 / interlaced=0 / bluray_compat=0 / constrained_intra=0 / bframes=8 / b_pyramid=2 / b_adapt=2 / b_bias=0 / direct=3 / weightb=1 / open_gop=0 / weightp=2 / keyint=250 / keyint_min=25 / scenecut=40 / intra_refresh=0 / rc_lookahead=40 / rc=2pass / mbtree=1 / bitrate=1680 / ratetol=1.0 / qcomp=0.60 / qpmin=0 / qpmax=69 / qpstep=4 / cplxblur=20.0 / qblur=0.5 / ip_ratio=1.40 / aq=1:1.00
Default : Да
Forced : Нет
Аудио
Идентификатор : 2
Формат : AC-3
Формат/Информация : Audio Coding 3
Расширение режима : CM (complete main)
Параметр Endianness формата : Big
Идентификатор кодека : A_AC3
Продолжительность : 27 м.
Вид битрейта : Постоянный
Битрейт : 192 Кбит/сек
Каналы : 2 канала
Расположение каналов : Front: L R
Частота : 48,0 КГц
Частота кадров : 31,250 кадров/сек (1536 spf)
Метод сжатия : С потерями
Размер потока : 38,1 Мбайт (10%)
Default : Да
Forced : Нет





   Похожие торренты   Торрент   Размер 
В этой теме нет новых непрочитанных сообщений. Побег из черного Халифата (2016) SATRip от New-Team

25 | 1

371.66 МБ

В этой теме нет новых непрочитанных сообщений. Орден Чёрного Орла / Закон Чёрного Орла / The Order of the Black Eagle (1987) SATRip | НТВ+

0 | 4

1.44 ГБ

В этой теме нет новых непрочитанных сообщений. Побег из тюрьмы: Финальный побег / Prison Break: The Final Break (2009) BDRip 720p от NOLIMITS-TEAM

67 | 30

2.26 ГБ

В этой теме нет новых непрочитанных сообщений. Nat Geo Wild: Дунай. Европейская Амазонка. От Чёрного леса до Чёрного моря / Danube. Europe`s Amazon (2012) HDTV 1080i

2 | 14

3.46 ГБ

В этой теме нет новых непрочитанных сообщений. Побег / Побег [01x04] (2010) SATRip

0 | 2

522.54 МБ

В этой теме нет новых непрочитанных сообщений. Орден Чёрного Орла / Закон Чёрного Орла / The Order of the Black Eagle (1987) TVRip | НТВ+

0 | 2

4.02 ГБ

В этой теме нет новых непрочитанных сообщений. Возвращение Чёрного скакуна / The Black Stallion Returns (1983) WEB-DLRip от New-Team | P2

21 | 8

1.46 ГБ




Вы не можете начинать темы
Вы не можете отвечать на сообщения
Вы не можете редактировать свои сообщения
Вы не можете удалять свои сообщения
Вы не можете добавлять вложения

Перейти:  
Для Мосгорсуда, Роскомнадзора и рекламодателей: mosgorsud-torrent[собачка]yandex.ru
 Вход
ppkBB3cker v.2 © 2008-2014 @ PPK
[ Time : 0.059s | 15 Queries | GZIP : Off ]

Торрент трекер RUTOR.IN, Не можете зайти на rutor.org? Какой новый адрес рутор? Какое зеркало рутор? Не работает rutor.org и зеркала? Тогда наш торрент специально для вас. Rutor.in неофициальное зеркало rutor. В случае если у Вас заблокирован rutor или вдруг Вы не можете на него зайти, то Вы без труда сможете скачать бесплатно и без рекламы последние новинки кино, игр, сериалов и прочего у нас, на Rutor.in. Не нужно использовать прокси, чтобы зайти на рутор, достаточно воспользоваться нашим ресурсом. Все новые фильмы, игры, сериалы, книги и музыка за 2013 и 2014 годы через торрент бесплатно. Скачивайте фильмы в хорошем качестве, игры для пк, xbox, playstation без регистрации. У нас вы найдете новые Зарубежные сериалы и Русские сериалы 2013, 2014, 2015 годов. Оставайтесь с нами, качайте любимые фильмы, игры, сериалы, книги и музыку.