img image001 image001 image001 image001 image001 image001 image001 image001 image001 image001 image001 image001 image001 image001 image001

Planets Sun Sun Sun
Статистика раздачи
Автор: Nickolas3434 | Размер: 372.6 МБ | Добавлен: 23 апр 2016
Раздают: 3    Качают: 1
Скачать торрент
Скачать торрент
Описание торрента

СообщениеДобавлено: 23 апр 2016 

Страна: Россия
Производство: Телеканал «Россия» «Специальный корреспондент»
Жанр: авторский
Год выпуска: 2016
Продолжительность: 00:21:59
Перевод: Не требуется
Cубтитры: нет
Оригинальная аудиодорожка: русский
Режиссер: Александр Сладков
В создании фильма участвовали:
Александр Сладков...
Описание:
Более 130 граждан России на Украине только официально обвиняются по политическим мотивам в тяжких преступлениях. Более 100 россиян уже находятся в заключении на Украине. Эти цифры сообщил уполномоченный по правам человека Министерства иностранных дел в России Константин Долгов. А сколько еще неофициально наших сограждан в украинских тюрьмах по надуманным...





Источник: HDTV 720p
Качество видео: HDTVRip
Формат видео: AVI
Видео: 720x400 (16:3), 25 fps, XviD ~ 2167 kbps avg, 0.301 bit/pixel
Аудио: 48 kHz, Dolby Digital AC3 2.0, 192 kbps
Раздача от:
Общее
Полное имя : Plennye.vozvrashhenie.iz.ada.HDTVRip_[New-team]_by_AVP_Studio.avi
Формат : AVI
Формат/Информация : Audio Video Interleave
Размер файла : 373 Мбайт
Продолжительность : 21 м.
Общий поток : 2369 Кбит/сек
Программа кодирования : VirtualDubMod 1.5.10.3 | www.virtualdub-fr.org || (build 2550/release)
Библиотека кодирования : VirtualDubMod build 2550/release
Видео
Идентификатор : 0
Формат : MPEG-4 Visual
Профиль формата : Advanced Simple@L5
Параметр BVOP формата : 1
Параметр QPel формата : Нет
Параметр GMC формата : Без точки перехода
Параметр матрицы формата : Выборочная
Идентификатор кодека : XVID
Идентификатор кодека/Подсказка : XviD
Продолжительность : 21 м.
Битрейт : 2167 Кбит/сек
Ширина : 720 пикселей
Высота : 400 пикселей
Соотношение сторон : 16:9
Частота кадров : 25,000 кадров/сек
Цветовое пространство : YUV
Субдискретизация насыщенности : 4:2:0
Битовая глубина : 8 бит
Тип развёртки : Прогрессивная
Метод сжатия : С потерями
Бит/(Пиксели*Кадры) : 0.301
Размер потока : 341 Мбайт (91%)
Библиотека кодирования : XviD 1.2.1 (UTC 2008-12-04)
Аудио
Идентификатор : 1
Формат : AC-3
Формат/Информация : Audio Coding 3
Расширение режима : CM (complete main)
Параметр Endianness формата : Big
Идентификатор кодека : 2000
Продолжительность : 21 м.
Вид битрейта : Постоянный
Битрейт : 192 Кбит/сек
Каналы : 2 канала
Расположение каналов : Front: L R
Частота : 48,0 КГц
Частота кадров : 31,250 кадров/сек (1536 spf)
Метод сжатия : С потерями
Размер потока : 30,2 Мбайт (8%)
Выравнивание : Разделение по промежуткам
Продолжительность промежутка : 40 мс. (1,00 видеокадр)
Время предзагрузки промежутка : 500 мс





   Похожие торренты   Торрент   Размер 
В этой теме нет новых непрочитанных сообщений. Пленные: возвращение из ада (2016) HDTVRip-AVC от New-Team

12 | 2

372.43 МБ

В этой теме нет новых непрочитанных сообщений. Библиотекарь 2: Возвращение в Копи Царя Соломона / The Librarian: Return to King Solomon's Mines (2006) HDTVRip 720p от NOLIMITS-TEAM

51 | 9

2.41 ГБ

В этой теме нет новых непрочитанных сообщений. Возвращение (1940) SATRip от New-Team

14 | 3

1.09 ГБ

В этой теме нет новых непрочитанных сообщений. Возвращение (1940) SATRip от New-Team

7 | 10

745.87 МБ

В этой теме нет новых непрочитанных сообщений. Возвращение (1940) SATRip-AVC от New-Team

12 | 8

1.09 ГБ

В этой теме нет новых непрочитанных сообщений. Возвращение с победой (1947) DVDRip-AVC от New-Team

28 | 5

1.46 ГБ

В этой теме нет новых непрочитанных сообщений. Возвращение с победой (1947) DVDRip от New-Team

8 | 4

1.46 ГБ




Вы не можете начинать темы
Вы не можете отвечать на сообщения
Вы не можете редактировать свои сообщения
Вы не можете удалять свои сообщения
Вы не можете добавлять вложения

Перейти:  
Для Мосгорсуда, Роскомнадзора и рекламодателей: mosgorsud-torrent[собачка]yandex.ru
 Вход
ppkBB3cker v.2 © 2008-2014 @ PPK
[ Time : 0.118s | 15 Queries | GZIP : Off ]

Торрент трекер RUTOR.IN, Не можете зайти на rutor.org? Какой новый адрес рутор? Какое зеркало рутор? Не работает rutor.org и зеркала? Тогда наш торрент специально для вас. Rutor.in неофициальное зеркало rutor. В случае если у Вас заблокирован rutor или вдруг Вы не можете на него зайти, то Вы без труда сможете скачать бесплатно и без рекламы последние новинки кино, игр, сериалов и прочего у нас, на Rutor.in. Не нужно использовать прокси, чтобы зайти на рутор, достаточно воспользоваться нашим ресурсом. Все новые фильмы, игры, сериалы, книги и музыка за 2013 и 2014 годы через торрент бесплатно. Скачивайте фильмы в хорошем качестве, игры для пк, xbox, playstation без регистрации. У нас вы найдете новые Зарубежные сериалы и Русские сериалы 2013, 2014, 2015 годов. Оставайтесь с нами, качайте любимые фильмы, игры, сериалы, книги и музыку.