img image001 image001 image001 image001 image001 image001 image001 image001 image001 image001 image001 image001 image001 image001 image001

Planets Sun Sun Sun
Статистика раздачи
Автор: Nickolas3434 | Размер: 673.75 МБ | Добавлен: 25 апр 2016
Раздают: 6    Качают: 0
Скачать торрент
Скачать торрент
Описание торрента

СообщениеДобавлено: 25 апр 2016 

Вайс: Война с ИГИЛ / VICE: Special Report. Fighting ISIS


#77
Дата/Год выпуска: 2016
Страна: США | Gretel | Pix System | SandBlast Productions
Жанр: Документальный
Продолжительность: 0:45:19
Перевод: Профессиональный (двухголосый закадровый) | студия "NOVAMEDiA" по заказу "AMEDiA TV"
Режиссер: Шэйн Смит / Shane Smith

Описание: Новый специальный выпуск тележурнала VICE посвящен террористической организации, ставшей угрозой стабильности и безопасности для всего мира. Что нужно предпринять, чтобы положить конец ужасающему властвованию «Исламского государства»? Автор выпуска, журналист Бен Андерсон, ставший свидетелем борьбы с ИГИЛ на передовой в Ираке, вспоминает время, когда он был внедрен в различные военные группировки, обсуждает фатальные ошибки, допущенные США с самого начала войны, и рассказывает о своей встрече лицом к лицу с захваченным в плен бойцом ИГИЛ.


Автор рипа: lrn
Автор записи: Alexin29
Сэмпл: sendfile

Тип релиза: HDTVRip-AVC
Контейнер: MKV
Видео: 1024x576 (16:9), 25,000 fps, H264, ~1500 kbps avg, ~0.102 bit/pixel
Аудио#1: 48 kHz, AC3 Dolby Digital, 3/2 (L,C,R,l,r) + LFE ch, ~384.00 kbps avg | студия "NOVAMEDiA"
Аудио#2: 48 kHz, AC3 Dolby Digital, 2/0 (L,R) ch, ~192.00 kbps avg | Оригинал

General
Unique ID : 217846426433967485508858352986071008510 (0xA3E3B2127E694E109F63D3E7393884FE)
Complete name : E:uTorrent.TempTempVICE.Special.Report.Fighting.ISIS.2016.HDTVRip-AVC.x264-RUS-ENG-lrn.mkv
Format : Matroska
Format version : Version 4 / Version 2
File size : 674 MiB
Duration : 45mn 19s
Overall bit rate : 2 078 Kbps
Movie name : VICE.Special.Report.Fighting.ISIS.2016.HDTVRip-AVC.x264-RUS-ENG-lrn
Encoded date : UTC 2010-02-22 21:41:31
Writing application : mkvmerge v5.9.0 ('On The Loose') built on Dec 9 2012 15:37:01
Writing library : libebml v1.3.0 + libmatroska v1.4.0
Video
ID : 1
Format : AVC
Format/Info : Advanced Video Codec
Format profile : High@L4.1
Format settings, CABAC : Yes
Format settings, ReFrames : 8 frames
Codec ID : V_MPEG4/ISO/AVC
Duration : 45mn 19s
Bit rate : 1 500 Kbps
Width : 1 024 pixels
Height : 576 pixels
Display aspect ratio : 16:9
Frame rate mode : Constant
Frame rate : 25.000 fps
Color space : YUV
Chroma subsampling : 4:2:0
Bit depth : 8 bits
Scan type : Progressive
Bits/(Pixel*Frame) : 0.102
Stream size : 474 MiB (70%)
Writing library : x264 core 142 r2479 dd79a61
Encoding settings : cabac=1 / ref=8 / deblock=1:-3:-3 / analyse=0x3:0x133 / me=umh / subme=9 / psy=1 / psy_rd=1.00:0.00 / mixed_ref=1 / me_range=32 / chroma_me=1 / trellis=2 / 8x8dct=1 / cqm=0 / deadzone=21,11 / fast_pskip=1 / chroma_qp_offset=-2 / threads=12 / lookahead_threads=2 / sliced_threads=0 / nr=0 / decimate=1 / interlaced=0 / bluray_compat=0 / constrained_intra=0 / bframes=8 / b_pyramid=2 / b_adapt=2 / b_bias=0 / direct=3 / weightb=1 / open_gop=0 / weightp=2 / keyint=250 / keyint_min=25 / scenecut=40 / intra_refresh=0 / rc_lookahead=50 / rc=2pass / mbtree=1 / bitrate=1500 / ratetol=1.0 / qcomp=0.60 / qpmin=0 / qpmax=69 / qpstep=4 / cplxblur=20.0 / qblur=0.5 / vbv_maxrate=62500 / vbv_bufsize=78125 / nal_hrd=none / filler=0 / ip_ratio=1.40 / aq=1:1.00
Default : Yes
Forced : No
Color range : Limited
Color primaries : BT.709
Transfer characteristics : BT.709
Matrix coefficients : BT.709
Audio #1
ID : 2
Format : AC-3
Format/Info : Audio Coding 3
Mode extension : CM (complete main)
Format settings, Endianness : Big
Codec ID : A_AC3
Duration : 45mn 19s
Bit rate mode : Constant
Bit rate : 384 Kbps
Channel(s) : 6 channels
Channel positions : Front: L C R, Side: L R, LFE
Sampling rate : 48.0 KHz
Frame rate : 31.250 fps (1536 spf)
Compression mode : Lossy
Delay relative to video : 200ms
Stream size : 124 MiB (18%)
Language : Russian
Default : Yes
Forced : Yes
Audio #2
ID : 3
Format : AC-3
Format/Info : Audio Coding 3
Mode extension : CM (complete main)
Format settings, Endianness : Big
Codec ID : A_AC3
Duration : 45mn 19s
Bit rate mode : Constant
Bit rate : 192 Kbps
Channel(s) : 2 channels
Channel positions : Front: L R
Sampling rate : 48.0 KHz
Frame rate : 31.250 fps (1536 spf)
Compression mode : Lossy
Delay relative to video : 250ms
Stream size : 62.2 MiB (9%)
Language : English
Default : No
Forced : No
raw [info]: 1024x576p 1:1 @ 25/1 fps (cfr)
x264 [info]: using SAR=1/1
x264 [info]: using cpu capabilities: MMX2 SSE2Fast SSSE3 SSE4.2 AVX
x264 [info]: profile High, level 4.1
x264 [info]: frame I:683 Avg QP:15.40 size: 63209
x264 [info]: frame P:15900 Avg QP:19.02 size: 17250
x264 [info]: frame B:51407 Avg QP:21.11 size: 3746
x264 [info]: consecutive B-frames: 2.9% 2.9% 7.1% 32.6% 22.4% 23.6% 4.6% 2.6% 1.4%
x264 [info]: mb I I16..4: 10.5% 69.7% 19.8%
x264 [info]: mb P I16..4: 2.2% 7.6% 1.0% P16..4: 45.5% 14.9% 13.7% 0.5% 0.2% skip:14.5%
x264 [info]: mb B I16..4: 0.2% 0.5% 0.1% B16..8: 35.8% 5.3% 1.2% direct: 3.5% skip:53.4% L0:41.8% L1:49.4% BI: 8.8%
x264 [info]: 8x8 transform intra:69.2% inter:67.4%
x264 [info]: direct mvs spatial:97.3% temporal:2.7%
x264 [info]: coded y,uvDC,uvAC intra: 65.7% 71.2% 36.7% inter: 13.8% 17.5% 0.7%
x264 [info]: i16 v,h,dc,p: 42% 20% 9% 29%
x264 [info]: i8 v,h,dc,ddl,ddr,vr,hd,vl,hu: 12% 12% 10% 8% 11% 11% 12% 11% 13%
x264 [info]: i4 v,h,dc,ddl,ddr,vr,hd,vl,hu: 14% 11% 5% 8% 13% 13% 13% 10% 13%
x264 [info]: i8c dc,h,v,p: 43% 27% 16% 13%
x264 [info]: Weighted P-Frames: Y:2.7% UV:1.0%
x264 [info]: ref P L0: 49.8% 10.7% 16.6% 6.3% 5.3% 4.4% 4.0% 2.7% 0.2% 0.0%
x264 [info]: ref B L0: 80.1% 9.9% 4.4% 2.2% 1.7% 1.1% 0.6%
x264 [info]: ref B L1: 94.4% 5.6%
x264 [info]: kb/s:1500.32
encoded 67991 frames, 23.23 fps, 1500.32 kb/s



   Похожие торренты   Торрент   Размер 
В этой теме нет новых непрочитанных сообщений. Вайс: Война с ИГИЛ / VICE: Special Report. Fighting ISIS (2016) HDTVRip | P2

75 | 2

745.02 МБ

В этой теме нет новых непрочитанных сообщений. Вайс: Война с ИГИЛ / VICE: Special Report. Fighting ISIS (2016) HDTVRip 720p | P

5 | 1

1.45 ГБ

В этой теме нет новых непрочитанных сообщений. Вайс / VICE [03x01-14 из 14] (2015) WB-DLRip от GeneralFilm | Novamedia

12 | 2

5.03 ГБ

В этой теме нет новых непрочитанных сообщений. Доклад о школьницах / Schulmadchen-Report / Schoolgirl Report [1-10 из 10] (1970-1976) VHSRip | P2, A

645 | 61

11.9 ГБ

В этой теме нет новых непрочитанных сообщений. Eric Vice - Vice Сity (2010) MP3

0 | 1

142.49 МБ

В этой теме нет новых непрочитанных сообщений. Dj Vice - Dj Vice - Spring edition mix (2014) MP3

96 | 15

183.24 МБ

В этой теме нет новых непрочитанных сообщений. Змей Исиды / The Serpent of Isis (2010) PC

1 | 2

106.46 МБ




Вы не можете начинать темы
Вы не можете отвечать на сообщения
Вы не можете редактировать свои сообщения
Вы не можете удалять свои сообщения
Вы не можете добавлять вложения

Перейти:  
Для Мосгорсуда, Роскомнадзора и рекламодателей: mosgorsud-torrent[собачка]yandex.ru
 Вход
ppkBB3cker v.2 © 2008-2014 @ PPK
[ Time : 0.042s | 15 Queries | GZIP : Off ]

Торрент трекер RUTOR.IN, Не можете зайти на rutor.org? Какой новый адрес рутор? Какое зеркало рутор? Не работает rutor.org и зеркала? Тогда наш торрент специально для вас. Rutor.in неофициальное зеркало rutor. В случае если у Вас заблокирован rutor или вдруг Вы не можете на него зайти, то Вы без труда сможете скачать бесплатно и без рекламы последние новинки кино, игр, сериалов и прочего у нас, на Rutor.in. Не нужно использовать прокси, чтобы зайти на рутор, достаточно воспользоваться нашим ресурсом. Все новые фильмы, игры, сериалы, книги и музыка за 2013 и 2014 годы через торрент бесплатно. Скачивайте фильмы в хорошем качестве, игры для пк, xbox, playstation без регистрации. У нас вы найдете новые Зарубежные сериалы и Русские сериалы 2013, 2014, 2015 годов. Оставайтесь с нами, качайте любимые фильмы, игры, сериалы, книги и музыку.