img image001 image001 image001 image001 image001 image001 image001 image001 image001 image001 image001 image001 image001 image001 image001

Planets Sun Sun Sun
Статистика раздачи
Автор: Nickolas3434 | Размер: 472.66 МБ | Добавлен: 25 апр 2016
Раздают: 2    Качают: 1
Скачать торрент
Скачать торрент
Описание торрента

СообщениеДобавлено: 25 апр 2016 


Информация о фильме
Название: Воспитание песней. Пионерия
Год выхода: 2010
Жанр: Документальный
Режиссер: Ирина Мальцева
О фильме:
Фильм о Детской Хоровой Студии "Пионерия" имени Г.А. Струве.
Россия, Московская Область, г. Железнодорожный.
Запись потока *.ts с наземного цифрового телеканала "Беларусь 3", ремукс в *.mkv программой VideoReDo.
Страна: Российская Федерация
Продолжительность: 00:26:18
Перевод: не требует
Файл
Кодек: AVC (H264)
Качество: DVB
Видео: AVC (H264), 720x576 (4:3), 25 fps, 2 207 Kbps
Звук: MP2, 256 kbps, 2 channels, 48 kHz
Семпл
Код:
General
Unique ID                      : 208522142196683073128006559132120155549 (0x9CDFE75DA161D8214FE4F8B0CCAE859D)
Complete name                  : D:Новая  земля 2\00001Воспитание песней. Пионерия (2010)Воспитание песней. Пионерия (2010).mkv
Format                         : Matroska
Format version                 : Version 2
File size                      : 473 MiB
Duration                       : 26mn 18s
Overall bit rate               : 2 513 Kbps
Writing application            : Lavf52.64.2
Writing library                : Lavf52.64.2
Video
ID                             : 1
Format                         : AVC
Format/Info                    : Advanced Video Codec
Format profile                 : Main@L3.0
Format settings, CABAC         : Yes
Format settings, ReFrames      : 4 frames
Format settings, GOP           : M=4, N=24
Codec ID                       : V_MPEG4/ISO/AVC
Duration                       : 26mn 18s
Bit rate                       : 2 207 Kbps
Width                          : 720 pixels
Height                         : 576 pixels
Display aspect ratio           : 4:3
Original display aspect ratio  : 4:3
Frame rate mode                : Constant
Frame rate                     : 25.000 fps
Standard                       : PAL
Color space                    : YUV
Chroma subsampling             : 4:2:0
Bit depth                      : 8 bits
Scan type                      : MBAFF
Scan order                     : Top Field First
Bits/(Pixel*Frame)             : 0.213
Stream size                    : 415 MiB (88%)
Default                        : Yes
Forced                         : No
Color primaries                : BT.601 PAL
Transfer characteristics       : BT.470 System B, BT.470 System G
Matrix coefficients            : BT.601
Color range                    : Limited
Audio
ID                             : 2
Format                         : MPEG Audio
Format version                 : Version 1
Format profile                 : Layer 2
Codec ID                       : A_MPEG/L2
Codec ID/Hint                  : MP2
Duration                       : 26mn 18s
Bit rate mode                  : Constant
Bit rate                       : 256 Kbps
Channel(s)                     : 2 channels
Sampling rate                  : 48.0 KHz
Compression mode               : Lossy
Stream size                    : 48.2 MiB (10%)
Language                       : English
Default                        : Yes
Forced                         : No
 




   Похожие торренты   Торрент   Размер 
В этой теме нет новых непрочитанных сообщений. Сборник - С песней по жизни (2010) МР3

0 | 1

684.5 МБ

В этой теме нет новых непрочитанных сообщений. Каббалистическая психология. Сексуальное воспитание. (2010) HDTV

5 | 3

621.91 МБ

В этой теме нет новых непрочитанных сообщений. Программа «Прокладывая путь». Воспитание девочек (2010) HDTVRip 720p

0 | 6

247.43 МБ

В этой теме нет новых непрочитанных сообщений. Славянский базар 2010. Творческий вечер Раймонда Паулса (2010) DVB от AND03AND

3 | 1

1.35 ГБ

В этой теме нет новых непрочитанных сообщений. Славянский базар 2010. Мастера искусств Беларуси (2010) BD DVB от AND03AND

2 | 1

1.33 ГБ

В этой теме нет новых непрочитанных сообщений. Славянский базар 2010. Мастера искусств России - Дмитрий Хворостовский (2010) DVB от AND03AND

1 | 0

1.4 ГБ

В этой теме нет новых непрочитанных сообщений. Песнь песней (2015) SATRip

400 | 24

1018.82 МБ




Вы не можете начинать темы
Вы не можете отвечать на сообщения
Вы не можете редактировать свои сообщения
Вы не можете удалять свои сообщения
Вы не можете добавлять вложения

Перейти:  
Для Мосгорсуда, Роскомнадзора и рекламодателей: mosgorsud-torrent[собачка]yandex.ru
 Вход
ppkBB3cker v.2 © 2008-2014 @ PPK
[ Time : 0.054s | 15 Queries | GZIP : Off ]

cron