img image001 image001 image001 image001 image001 image001 image001 image001 image001 image001 image001 image001 image001 image001 image001

Planets Sun Sun Sun
Статистика раздачи
Автор: Nickolas3434 | Размер: 779.09 МБ | Добавлен: 27 апр 2016
Раздают: 2    Качают: 4
Скачать торрент
Скачать торрент
Описание торрента

СообщениеДобавлено: 27 апр 2016 


Информация о фильме
Название: Александр Ворошило. Свой голос
Год выхода: 2014
Жанр: Документальный
Режиссер: Александр Плахов
О фильме:
Фильм рассказывает о жизни и творчестве народного артиста РСФСР, Лауреата Государственной премии, солиста Большого театра Александра Ворошило. Его жизнь оказалась не только удивительно интересной, но выразительно показательной для понимания природы формирования нашего современника, субъективно оказавшегося в трагической ситуации, объективно совпавшей с эпохой социально-политических перемен.
Фильм повествует о сильной личности большого артиста, удачливого предпринимателя, талантливого педагога, пытаясь осмыслить феномен этого незаурядного человека, заряженного на созидание.
Благодарность: большое спасибо за материал PavelDAS
Запись потока *.ts с наземного цифрового телеканала "Беларусь 3", ремукс в *.mkv программой VideoReDo.
Страна: Российская Федерация
Студия: Продюсерская компания «Кино и Театр»
Продолжительность: 00:43:59
Перевод: не требует
Файл
Кодек: AVC (H264)
Качество: DVB
Видео: AVC (H264), 720x576 (4:3), 25 fps, 2 171 Kbps
Звук: MP2, 256 kbps, 2 channels, 48 kHz
Семпл
Код:
General
Unique ID                      : 259232390561008511281842838987866840260 (0xC30657A47D30BADAE62B14C518CB1CC4)
Complete name                  : D:Новая  земля 201 Документальный фильмыЛичностиАлександр Ворошило. Свой голос (2014)Александр Ворошило. Свой голос (2014).mkv
Format                         : Matroska
Format version                 : Version 2
File size                      : 779 MiB
Duration                       : 43mn 59s
Overall bit rate               : 2 476 Kbps
Writing application            : Lavf52.64.2
Writing library                : Lavf52.64.2
Video
ID                             : 1
Format                         : AVC
Format/Info                    : Advanced Video Codec
Format profile                 : Main@L3.0
Format settings, CABAC         : Yes
Format settings, ReFrames      : 4 frames
Format settings, GOP           : M=4, N=24
Codec ID                       : V_MPEG4/ISO/AVC
Duration                       : 43mn 59s
Bit rate                       : 2 171 Kbps
Width                          : 720 pixels
Height                         : 576 pixels
Display aspect ratio           : 4:3
Original display aspect ratio  : 4:3
Frame rate mode                : Constant
Frame rate                     : 25.000 fps
Standard                       : PAL
Color space                    : YUV
Chroma subsampling             : 4:2:0
Bit depth                      : 8 bits
Scan type                      : MBAFF
Scan order                     : Top Field First
Bits/(Pixel*Frame)             : 0.209
Stream size                    : 683 MiB (88%)
Default                        : Yes
Forced                         : No
Color primaries                : BT.601 PAL
Transfer characteristics       : BT.470 System B, BT.470 System G
Matrix coefficients            : BT.601
Color range                    : Limited
Audio
ID                             : 2
Format                         : MPEG Audio
Format version                 : Version 1
Format profile                 : Layer 2
Codec ID                       : A_MPEG/L2
Codec ID/Hint                  : MP2
Duration                       : 43mn 59s
Bit rate mode                  : Constant
Bit rate                       : 256 Kbps
Channel(s)                     : 2 channels
Sampling rate                  : 48.0 KHz
Compression mode               : Lossy
Stream size                    : 80.5 MiB (10%)
Language                       : English
Default                        : Yes
Forced                         : No
 




   Похожие торренты   Торрент   Размер 
В этой теме нет новых непрочитанных сообщений. Александр Малинин - Голос Души (2012) DVB от AND03AND

14 | 5

1.36 ГБ

В этой теме нет новых непрочитанных сообщений. Павел Колесов - Как раскрыть свой грудной голос (2010) MP3

214 | 11

25.02 МБ

В этой теме нет новых непрочитанных сообщений. Александр Серов. Судьбе назло (2014) DVB от AND03AND

3 | 3

1.37 ГБ

В этой теме нет новых непрочитанных сообщений. Мясников Александр - Свой-чужой. (2015) MP3

188 | 10

148.77 МБ

В этой теме нет новых непрочитанных сообщений. Новый год на Беларусь 3 / Калыханка для дарослых (Бяседа, Чистый голос) (2016) DVB от AND03AND

22 | 14

2.59 ГБ

В этой теме нет новых непрочитанных сообщений. Это счастье. Александр Солодуха (2016) DVB от AND03AND

28 | 6

1.15 ГБ

В этой теме нет новых непрочитанных сообщений. Александр Медведь. Человек-легенда (2012) SATRip от AND03AND

125 | 11

369.77 МБ




Вы не можете начинать темы
Вы не можете отвечать на сообщения
Вы не можете редактировать свои сообщения
Вы не можете удалять свои сообщения
Вы не можете добавлять вложения

Перейти:  
Для Мосгорсуда, Роскомнадзора и рекламодателей: mosgorsud-torrent[собачка]yandex.ru
 Вход
ppkBB3cker v.2 © 2008-2014 @ PPK
[ Time : 0.026s | 14 Queries | GZIP : Off ]

Торрент трекер RUTOR.IN, Не можете зайти на rutor.org? Какой новый адрес рутор? Какое зеркало рутор? Не работает rutor.org и зеркала? Тогда наш торрент специально для вас. Rutor.in неофициальное зеркало rutor. В случае если у Вас заблокирован rutor или вдруг Вы не можете на него зайти, то Вы без труда сможете скачать бесплатно и без рекламы последние новинки кино, игр, сериалов и прочего у нас, на Rutor.in. Не нужно использовать прокси, чтобы зайти на рутор, достаточно воспользоваться нашим ресурсом. Все новые фильмы, игры, сериалы, книги и музыка за 2013 и 2014 годы через торрент бесплатно. Скачивайте фильмы в хорошем качестве, игры для пк, xbox, playstation без регистрации. У нас вы найдете новые Зарубежные сериалы и Русские сериалы 2013, 2014, 2015 годов. Оставайтесь с нами, качайте любимые фильмы, игры, сериалы, книги и музыку.