img image001 image001 image001 image001 image001 image001 image001 image001 image001 image001 image001 image001 image001 image001 image001

Planets Sun Sun Sun
Статистика раздачи
Автор: Nickolas3434 | Размер: 2.95 ГБ | Добавлен: 27 апр 2016
Раздают: 42    Качают: 0
Скачать торрент
Скачать торрент
Описание торрента

СообщениеДобавлено: 27 апр 2016 

Дженис: Грустная Маленькая Девочка / Janis: Little Girl Blue


#77
Год выпуска: 2015
Страна: США | Disarming Films | Jigsaw Productions
Жанр: Документальный
Продолжительность: 1:36:23
Перевод: Профессиональный (многоголосый закадровый) | "Эй Би Видео" по заказу "Первого Канала"
Режиссеры: Эми Берг / Amy Berg

Описание: В фильме певица Кет Пауэр рассказывает о звездном пути Дженис Джоплин, обращаясь к письмам, которые Джоплин в разные годы писала друзьям, родственникам и коллегам.


Автор рипа: lrn
Автор записи: Alexin29
Сэмпл: sendfile

Тип релиза: HDTVRip 720p
Контейнер: MKV
Видео: 1280x720 (16:9), 25,000 fps, H264, ~4000 kbps avg, ~0.181 bit/pixel
Аудио: 48 kHz, AC3 Dolby Digital, 3/2 (L,C,R,l,r) + LFE ch, ~384.00 kbps avg

General
Unique ID : 238371974657089691620546468039602705026 (0xB354C5BB51263D7AA594568496AF9282)
Complete name : E:uTorrent.TempTempJanis.Little.Girl.Blue.2015.HDTVRip.720p.x264-RUS-lrn.mkv
Format : Matroska
Format version : Version 4 / Version 2
File size : 2.95 GiB
Duration : 1h 36mn
Overall bit rate : 4 384 Kbps
Movie name : Janis.Little.Girl.Blue.2015.HDTVRip.720p.x264-RUS-lrn
Encoded date : UTC 2010-02-22 21:41:31
Writing application : mkvmerge v5.9.0 ('On The Loose') built on Dec 9 2012 15:37:01
Writing library : libebml v1.3.0 + libmatroska v1.4.0
Video
ID : 1
Format : AVC
Format/Info : Advanced Video Codec
Format profile : High@L4.1
Format settings, CABAC : Yes
Format settings, ReFrames : 8 frames
Codec ID : V_MPEG4/ISO/AVC
Duration : 1h 36mn
Bit rate : 4 000 Kbps
Width : 1 280 pixels
Height : 720 pixels
Display aspect ratio : 16:9
Frame rate mode : Constant
Frame rate : 25.000 fps
Color space : YUV
Chroma subsampling : 4:2:0
Bit depth : 8 bits
Scan type : Progressive
Bits/(Pixel*Frame) : 0.174
Stream size : 2.63 GiB (89%)
Writing library : x264 core 148 r2638 7599210
Encoding settings : cabac=1 / ref=8 / deblock=1:-3:-3 / analyse=0x3:0x133 / me=umh / subme=9 / psy=1 / psy_rd=1.00:0.00 / mixed_ref=1 / me_range=32 / chroma_me=1 / trellis=2 / 8x8dct=1 / cqm=0 / deadzone=21,11 / fast_pskip=1 / chroma_qp_offset=-2 / threads=12 / lookahead_threads=2 / sliced_threads=0 / nr=0 / decimate=1 / interlaced=0 / bluray_compat=0 / constrained_intra=0 / bframes=8 / b_pyramid=2 / b_adapt=2 / b_bias=0 / direct=3 / weightb=1 / open_gop=0 / weightp=2 / keyint=250 / keyint_min=25 / scenecut=40 / intra_refresh=0 / rc_lookahead=50 / rc=2pass / mbtree=1 / bitrate=4000 / ratetol=1.0 / qcomp=0.60 / qpmin=0 / qpmax=69 / qpstep=4 / cplxblur=20.0 / qblur=0.5 / vbv_maxrate=62500 / vbv_bufsize=78125 / nal_hrd=none / filler=0 / ip_ratio=1.40 / aq=1:1.00
Default : Yes
Forced : No
Statistics Tags Issue : mkvmerge v8.5.2 ('Crosses') 32bit 2016-04-25 10:21:14 / mkvmerge v5.9.0 ('On The Loose') built on Dec 9 2012 15:37:01 2010-02-22 21:41:31
FromStats_BitRate : 3998053
FromStats_Duration : 01:36:23.000000000
FromStats_FrameCount : 144575
FromStats_StreamSize : 2890092982
Audio
ID : 2
Format : AC-3
Format/Info : Audio Coding 3
Mode extension : CM (complete main)
Format settings, Endianness : Big
Codec ID : A_AC3
Duration : 1h 36mn
Bit rate mode : Constant
Bit rate : 384 Kbps
Channel(s) : 6 channels
Channel positions : Front: L C R, Side: L R, LFE
Sampling rate : 48.0 KHz
Frame rate : 31.250 fps (1536 spf)
Compression mode : Lossy
Stream size : 265 MiB (9%)
Language : Russian
Default : Yes
Forced : No
raw [info]: 1280x720p 1:1 @ 25/1 fps (cfr)
x264 [info]: using SAR=1/1
x264 [info]: using cpu capabilities: MMX2 SSE2Fast SSSE3 SSE4.2 AVX
x264 [info]: profile High, level 4.1
x264 [info]: frame I:879 Avg QP:14.58 size: 98821
x264 [info]: frame P:39536 Avg QP:18.04 size: 31453
x264 [info]: frame B:104160 Avg QP:19.37 size: 14974
x264 [info]: consecutive B-frames: 3.8% 6.6% 6.9% 56.4% 8.7% 12.2% 1.7% 2.5% 1.1%
x264 [info]: mb I I16..4: 10.0% 77.8% 12.2%
x264 [info]: mb P I16..4: 2.9% 22.6% 1.1% P16..4: 36.6% 14.4% 7.9% 0.2% 0.1% skip:14.3%
x264 [info]: mb B I16..4: 0.3% 3.8% 0.2% B16..8: 34.3% 11.3% 2.1% direct:10.3% skip:37.8% L0:44.6% L1:45.9% BI: 9.5%
x264 [info]: 8x8 transform intra:85.5% inter:74.9%
x264 [info]: direct mvs spatial:98.3% temporal:1.7%
x264 [info]: coded y,uvDC,uvAC intra: 78.9% 69.5% 31.3% inter: 32.7% 33.4% 1.8%
x264 [info]: i16 v,h,dc,p: 30% 14% 7% 48%
x264 [info]: i8 v,h,dc,ddl,ddr,vr,hd,vl,hu: 13% 10% 6% 7% 11% 14% 12% 13% 13%
x264 [info]: i4 v,h,dc,ddl,ddr,vr,hd,vl,hu: 13% 9% 4% 8% 14% 16% 13% 11% 11%
x264 [info]: i8c dc,h,v,p: 40% 22% 18% 20%
x264 [info]: Weighted P-Frames: Y:3.2% UV:1.5%
x264 [info]: ref P L0: 48.9% 9.3% 15.7% 7.9% 5.5% 5.1% 4.0% 3.3% 0.4% 0.0%
x264 [info]: ref B L0: 76.1% 10.9% 5.5% 2.9% 2.3% 1.4% 0.8%
x264 [info]: ref B L1: 94.7% 5.3%
x264 [info]: kb/s:3998.05
encoded 144575 frames, 13.53 fps, 3998.05 kb/s



   Похожие торренты   Торрент   Размер 
В этой теме нет новых непрочитанных сообщений. Дженис: Грустная Маленькая Девочка / Janis: Little Girl Blue (2015) HDTVRip-AVC | P

2 | 0

1.27 ГБ

В этой теме нет новых непрочитанных сообщений. OST - Дженис: Грустная маленькая девочка / Janis: Little Girl Blue [Janis Joplin] (2016) FLAC

11 | 0

468.82 МБ

В этой теме нет новых непрочитанных сообщений. OST - Дженис: Грустная маленькая девочка / Janis: Little Girl Blue (2016) MP3

25 | 4

183.85 МБ

В этой теме нет новых непрочитанных сообщений. Дженис и Джон / Janis et John (2003) DVDRip от FilmRus | P2

4 | 2

1.37 ГБ

В этой теме нет новых непрочитанных сообщений. Девочка и Робот / Girl and Robot (2010) HDTVRip 720p

1 | 3

70 МБ

В этой теме нет новых непрочитанных сообщений. Маленькая девочка-пулемёт / Скромная девочка-пулемёт / Shyness Machine Girl / The Hajirai Machine Girl (2009) DVDRip

21 | 3

667.58 МБ

В этой теме нет новых непрочитанных сообщений. Голубой Валентин / Грустная валентинка / Blue Valentine (2010) BDRip 720p от HiDt

12 | 2

10.09 ГБ




Вы не можете начинать темы
Вы не можете отвечать на сообщения
Вы не можете редактировать свои сообщения
Вы не можете удалять свои сообщения
Вы не можете добавлять вложения

Перейти:  
Для Мосгорсуда, Роскомнадзора и рекламодателей: mosgorsud-torrent[собачка]yandex.ru
 Вход
ppkBB3cker v.2 © 2008-2014 @ PPK
[ Time : 0.021s | 15 Queries | GZIP : Off ]

Торрент трекер RUTOR.IN, Не можете зайти на rutor.org? Какой новый адрес рутор? Какое зеркало рутор? Не работает rutor.org и зеркала? Тогда наш торрент специально для вас. Rutor.in неофициальное зеркало rutor. В случае если у Вас заблокирован rutor или вдруг Вы не можете на него зайти, то Вы без труда сможете скачать бесплатно и без рекламы последние новинки кино, игр, сериалов и прочего у нас, на Rutor.in. Не нужно использовать прокси, чтобы зайти на рутор, достаточно воспользоваться нашим ресурсом. Все новые фильмы, игры, сериалы, книги и музыка за 2013 и 2014 годы через торрент бесплатно. Скачивайте фильмы в хорошем качестве, игры для пк, xbox, playstation без регистрации. У нас вы найдете новые Зарубежные сериалы и Русские сериалы 2013, 2014, 2015 годов. Оставайтесь с нами, качайте любимые фильмы, игры, сериалы, книги и музыку.