img image001 image001 image001 image001 image001 image001 image001 image001 image001 image001 image001 image001 image001 image001 image001

Planets Sun Sun Sun
Статистика раздачи
Автор: Nickolas3434 | Размер: 671.86 МБ | Добавлен: 27 апр 2016
Раздают: 1    Качают: 0
Скачать торрент
Скачать торрент
Описание торрента

СообщениеДобавлено: 27 апр 2016 

Прокофьев Наш. К 125-Летию Композитора


#77
Год выпуска: 2016
Страна: Россия
Студия: Первый Канал HD | Студия Индиго
Жанр: Документальный
Продолжительность: 0:49:48
Режиссеры: Андрей Стволинский, Юлия Рыбакова

Описание: Он бежал от революции. Бежал за границу с намерением остаться там навсегда. Но сытая жизнь буржуа тяготила Сергея Прокофьева. Его уговаривает вернуться лично нарком просвещения Луначарский. Гениальный композитор рискует и остается в СССР в 1936-м году. Сталин лично следит за этим возвращением. Ему важно показать всему миру – гении предпочитают жить и работать в Советском Союзе.

Автор рипа: lrn
Автор записи: GeneralFilm
Сэмпл: sendfile

Тип релиза: HDTVRip-AVC
Контейнер: MKV
Видео: 1024x576 (16:9), 25,000 fps, H264, ~1500 kbps avg, ~0.102 bit/pixel
Аудио: 48 kHz, AC3 Dolby Digital, 3/2 (L,C,R,l,r) + LFE ch, ~384.00 kbps avg

General
Unique ID : 170561269108920337921762393495643186444 (0x8050E7D2518A85989A784F034E45650C)
Complete name : E:uTorrent.TempTempProkofiev.Nash.2016.HDTVRip-AVC.x264-lrn.mkv
Format : Matroska
Format version : Version 4 / Version 2
File size : 672 MiB
Duration : 49mn 48s
Overall bit rate : 1 886 Kbps
Movie name : Prokofiev.Nash.2016.HDTVRip-AVC.x264-lrn
Encoded date : UTC 2010-02-22 21:41:31
Writing application : mkvmerge v5.9.0 ('On The Loose') built on Dec 9 2012 15:37:01
Writing library : libebml v1.3.0 + libmatroska v1.4.0
Video
ID : 1
Format : AVC
Format/Info : Advanced Video Codec
Format profile : High@L4.1
Format settings, CABAC : Yes
Format settings, ReFrames : 8 frames
Codec ID : V_MPEG4/ISO/AVC
Duration : 49mn 48s
Bit rate : 1 500 Kbps
Width : 1 024 pixels
Height : 576 pixels
Display aspect ratio : 16:9
Frame rate mode : Constant
Frame rate : 25.000 fps
Color space : YUV
Chroma subsampling : 4:2:0
Bit depth : 8 bits
Scan type : Progressive
Bits/(Pixel*Frame) : 0.102
Stream size : 522 MiB (78%)
Writing library : x264 core 148 r2638 7599210
Encoding settings : cabac=1 / ref=8 / deblock=1:-3:-3 / analyse=0x3:0x133 / me=umh / subme=9 / psy=1 / psy_rd=1.00:0.00 / mixed_ref=1 / me_range=32 / chroma_me=1 / trellis=2 / 8x8dct=1 / cqm=0 / deadzone=21,11 / fast_pskip=1 / chroma_qp_offset=-2 / threads=12 / lookahead_threads=2 / sliced_threads=0 / nr=0 / decimate=1 / interlaced=0 / bluray_compat=0 / constrained_intra=0 / bframes=8 / b_pyramid=2 / b_adapt=2 / b_bias=0 / direct=3 / weightb=1 / open_gop=0 / weightp=2 / keyint=250 / keyint_min=25 / scenecut=40 / intra_refresh=0 / rc_lookahead=50 / rc=2pass / mbtree=1 / bitrate=1500 / ratetol=1.0 / qcomp=0.60 / qpmin=0 / qpmax=69 / qpstep=4 / cplxblur=20.0 / qblur=0.5 / vbv_maxrate=62500 / vbv_bufsize=78125 / nal_hrd=none / filler=0 / ip_ratio=1.40 / aq=1:1.00
Default : Yes
Forced : No
Statistics Tags Issue : mkvmerge v8.5.2 ('Crosses') 32bit 2016-04-25 11:29:12 / mkvmerge v5.9.0 ('On The Loose') built on Dec 9 2012 15:37:01 2010-02-22 21:41:31
FromStats_BitRate : 1499931
FromStats_Duration : 00:49:48.840000000
FromStats_FrameCount : 74721
FromStats_StreamSize : 560381869
Audio
ID : 2
Format : AC-3
Format/Info : Audio Coding 3
Mode extension : CM (complete main)
Format settings, Endianness : Big
Codec ID : A_AC3
Duration : 49mn 48s
Bit rate mode : Constant
Bit rate : 384 Kbps
Channel(s) : 6 channels
Channel positions : Front: L C R, Side: L R, LFE
Sampling rate : 48.0 KHz
Frame rate : 31.250 fps (1536 spf)
Compression mode : Lossy
Stream size : 137 MiB (20%)
Language : Russian
Default : Yes
Forced : No
raw [info]: 1024x576p 1:1 @ 25/1 fps (cfr)
x264 [info]: using SAR=1/1
x264 [info]: using cpu capabilities: MMX2 SSE2Fast SSSE3 SSE4.2 AVX
x264 [info]: profile High, level 4.1
x264 [info]: frame I:464 Avg QP:16.57 size: 57791
x264 [info]: frame P:19310 Avg QP:19.47 size: 16638
x264 [info]: frame B:54947 Avg QP:21.83 size: 3864
x264 [info]: consecutive B-frames: 1.6% 3.8% 6.2% 72.4% 5.9% 7.9% 0.7% 1.2% 0.2%
x264 [info]: mb I I16..4: 9.1% 74.8% 16.1%
x264 [info]: mb P I16..4: 1.7% 6.9% 0.8% P16..4: 47.9% 15.8% 13.6% 0.4% 0.1% skip:12.7%
x264 [info]: mb B I16..4: 0.1% 0.6% 0.1% B16..8: 35.7% 5.3% 1.1% direct: 3.3% skip:53.8% L0:39.5% L1:49.9% BI:10.6%
x264 [info]: 8x8 transform intra:74.7% inter:69.2%
x264 [info]: direct mvs spatial:96.0% temporal:4.0%
x264 [info]: coded y,uvDC,uvAC intra: 71.6% 64.3% 25.0% inter: 14.7% 16.4% 0.6%
x264 [info]: i16 v,h,dc,p: 30% 12% 6% 52%
x264 [info]: i8 v,h,dc,ddl,ddr,vr,hd,vl,hu: 16% 9% 5% 8% 12% 14% 12% 12% 11%
x264 [info]: i4 v,h,dc,ddl,ddr,vr,hd,vl,hu: 19% 8% 3% 8% 14% 14% 12% 11% 10%
x264 [info]: i8c dc,h,v,p: 37% 25% 23% 15%
x264 [info]: Weighted P-Frames: Y:5.4% UV:1.9%
x264 [info]: ref P L0: 53.1% 12.3% 16.5% 5.0% 4.5% 3.3% 3.2% 2.0% 0.3% 0.0%
x264 [info]: ref B L0: 81.1% 10.0% 4.1% 2.0% 1.4% 1.0% 0.5%
x264 [info]: ref B L1: 95.5% 4.5%
x264 [info]: kb/s:1499.93
encoded 74721 frames, 27.57 fps, 1499.93 kb/s



   Похожие торренты   Торрент   Размер 
В этой теме нет новых непрочитанных сообщений. Прокофьев Наш. К 125-Летию Композитора (2016) HDTVRip 720p

0 | 0

1.53 ГБ

В этой теме нет новых непрочитанных сообщений. Прокофьев наш. К 125-летию композитора (2016) HDTVRip от GeneralFilm

2 | 0

713.12 МБ

В этой теме нет новых непрочитанных сообщений. Прокофьев наш. К 125-летию композитора (2016) HDTV 1080i от GeneralFilm

0 | 0

2.3 ГБ

В этой теме нет новых непрочитанных сообщений. Праздничный концерт. К 80-летию Госавтоинспекции (2016) HDTVRip от GeneralFilm

38 | 4

1.32 ГБ

В этой теме нет новых непрочитанных сообщений. Рождённый летать. К 100-летию Алексея Маресьева (2016) HDTVRip от GeneralFilm

6 | 0

639.89 МБ

В этой теме нет новых непрочитанных сообщений. Концерт, посвященный 45-летию фильма Офицеры (2016) HDTVRip от GeneralFilm

173 | 2

1.56 ГБ

В этой теме нет новых непрочитанных сообщений. Саид и Карлсон. К 90-летию Спартака Мишулина (2016) HDTVRip от GeneralFilm

35 | 2

711.56 МБ




Вы не можете начинать темы
Вы не можете отвечать на сообщения
Вы не можете редактировать свои сообщения
Вы не можете удалять свои сообщения
Вы не можете добавлять вложения

Перейти:  
Для Мосгорсуда, Роскомнадзора и рекламодателей: mosgorsud-torrent[собачка]yandex.ru
 Вход
ppkBB3cker v.2 © 2008-2014 @ PPK
[ Time : 0.534s | 17 Queries | GZIP : Off ]

Торрент трекер RUTOR.IN, Не можете зайти на rutor.org? Какой новый адрес рутор? Какое зеркало рутор? Не работает rutor.org и зеркала? Тогда наш торрент специально для вас. Rutor.in неофициальное зеркало rutor. В случае если у Вас заблокирован rutor или вдруг Вы не можете на него зайти, то Вы без труда сможете скачать бесплатно и без рекламы последние новинки кино, игр, сериалов и прочего у нас, на Rutor.in. Не нужно использовать прокси, чтобы зайти на рутор, достаточно воспользоваться нашим ресурсом. Все новые фильмы, игры, сериалы, книги и музыка за 2013 и 2014 годы через торрент бесплатно. Скачивайте фильмы в хорошем качестве, игры для пк, xbox, playstation без регистрации. У нас вы найдете новые Зарубежные сериалы и Русские сериалы 2013, 2014, 2015 годов. Оставайтесь с нами, качайте любимые фильмы, игры, сериалы, книги и музыку.