img image001 image001 image001 image001 image001 image001 image001 image001 image001 image001 image001 image001 image001 image001 image001

Planets Sun Sun Sun
Статистика раздачи
Автор: Nickolas3434 | Размер: 604.05 МБ | Добавлен: 30 апр 2016
Раздают: 17    Качают: 4
Скачать торрент
Скачать торрент
Описание торрента

СообщениеДобавлено: 30 апр 2016 

Страна: Россия
Производство: Телеканал «Россия» «Вести.Doc
Жанр: авторский
Год выпуска: 2016
Продолжительность: 00:32:34
Перевод: Не требуется
Cубтитры: нет
Оригинальная аудиодорожка: русский
Режиссер: Ольга Скабеева
В создании фильма участвовали:
Ольга Скабеева, Владимир Кузнецов, Алексей Столяров...
Описание:
Кто одурачил адвоката Надежды Савченко? На связи Эрдоган, что президент Турции думает о России. Доверяй, но проверяй, почему газеты Нью-Йорк Таймс собиралась напечатать фальшивое интервью с президентом Порошенко. Пранкеры, борцы за правду или провокаторы? Новое явление в современной политической жизни в фильме Дозвониться до президента...





Источник: HDTV 720p
Качество видео: HDTVRip-AVC
Формат видео: MKV
Видео: 1024x576 (16:3), 25 fps, H264 ~ 2400 kbps avg, 0.163 bit/pixel
Аудио: 48 kHz, Dolby Digital AC3 2.0, 192 kbps
Раздача от:
Общее
Полное имя : Dozvonitsya.do.prezidenta.2016.HDTVRip-AVC_[New-team]_by_AVP_Studio.mkv
Формат : Matroska
Версия формата : Version 2
Размер файла : 604 Мбайт
Продолжительность : 32 м.
Общий поток : 2594 Кбит/сек
Дата кодирования : UTC 2016-04-28 11:23:34
Программа кодирования : mkvmerge v6.1.0 ('Old Devil') built on Mar 4 2013 09:10:42
Библиотека кодирования : libebml v1.3.0 + libmatroska v1.4.0
Видео
Идентификатор : 1
Формат : AVC
Формат/Информация : Advanced Video Codec
Профиль формата : High@L4.1
Параметр CABAC формата : Да
Параметр ReFrames формата : 10 кадров
Идентификатор кодека : V_MPEG4/ISO/AVC
Продолжительность : 32 м.
Битрейт : 2400 Кбит/сек
Ширина : 1024 пикселя
Высота : 576 пикселей
Соотношение сторон : 16:9
Режим частоты кадров : Постоянный
Частота кадров : 25,000 кадров/сек
Цветовое пространство : YUV
Субдискретизация насыщенности : 4:2:0
Битовая глубина : 8 бит
Тип развёртки : Прогрессивная
Бит/(Пиксели*Кадры) : 0.163
Размер потока : 547 Мбайт (91%)
Библиотека кодирования : x264 core 148 r2597 e86f3a1
Настройки программы : cabac=1 / ref=10 / deblock=1:-3:-2 / analyse=0x3:0x113 / me=umh / subme=10 / psy=1 / psy_rd=1.00:0.00 / mixed_ref=1 / me_range=32 / chroma_me=1 / trellis=2 / 8x8dct=1 / cqm=0 / deadzone=21,11 / fast_pskip=1 / chroma_qp_offset=-2 / threads=6 / lookahead_threads=1 / sliced_threads=0 / nr=0 / decimate=0 / interlaced=0 / bluray_compat=0 / constrained_intra=0 / bframes=8 / b_pyramid=2 / b_adapt=2 / b_bias=0 / direct=3 / weightb=1 / open_gop=0 / weightp=2 / keyint=250 / keyint_min=25 / scenecut=40 / intra_refresh=0 / rc_lookahead=40 / rc=2pass / mbtree=1 / bitrate=2400 / ratetol=1.0 / qcomp=0.60 / qpmin=0 / qpmax=69 / qpstep=4 / cplxblur=20.0 / qblur=0.5 / ip_ratio=1.40 / aq=1:1.00
Default : Да
Forced : Нет
Аудио
Идентификатор : 2
Формат : AC-3
Формат/Информация : Audio Coding 3
Расширение режима : CM (complete main)
Параметр Endianness формата : Big
Идентификатор кодека : A_AC3
Продолжительность : 32 м.
Вид битрейта : Постоянный
Битрейт : 192 Кбит/сек
Каналы : 2 канала
Расположение каналов : Front: L R
Частота : 48,0 КГц
Частота кадров : 31,250 кадров/сек (1536 spf)
Метод сжатия : С потерями
Размер потока : 44,7 Мбайт (7%)
Default : Да
Forced : Нет





   Похожие торренты   Торрент   Размер 
В этой теме нет новых непрочитанных сообщений. Дозвониться до президента (2016) HDTVRip от New-Team

12 | 1

372.51 МБ

В этой теме нет новых непрочитанных сообщений. Убийство школьного президента / Assassination of a High School President (2008) BDRip 720p от NOLIMITS-TEAM

2 | 6

2.18 ГБ

В этой теме нет новых непрочитанных сообщений. Ежегодное послание Президента РФ В.В. Путина Федеральному Собранию [01.12] (2016) WEB-DL 720p

40 | 0

771.51 МБ

В этой теме нет новых непрочитанных сообщений. Новогоднее обращение президента России В.В. Путина (2013) HDTVRip 720p

3 | 4

123.47 МБ

В этой теме нет новых непрочитанных сообщений. Теледебаты кандидатов на пост Президента США Хилари Клинтон с Дональдом Трампом [27.09] (2016) WEB-DL 1080i

0 | 0

2.05 ГБ

В этой теме нет новых непрочитанных сообщений. Теледебаты кандидатов на пост Президента США Хилари Клинтон с Дональдом Трампом (2016) WEB-DL 720p

0 | 0

786.4 МБ

В этой теме нет новых непрочитанных сообщений. Теледебаты кандидатов на пост Президента США Хилари Клинтон с Дональдом Трампом [09.10] (2016) WEB-DL 720p

50 | 2

986.46 МБ




Вы не можете начинать темы
Вы не можете отвечать на сообщения
Вы не можете редактировать свои сообщения
Вы не можете удалять свои сообщения
Вы не можете добавлять вложения

Перейти:  
Для Мосгорсуда, Роскомнадзора и рекламодателей: mosgorsud-torrent[собачка]yandex.ru
 Вход
ppkBB3cker v.2 © 2008-2014 @ PPK
[ Time : 0.027s | 15 Queries | GZIP : Off ]

Торрент трекер RUTOR.IN, Не можете зайти на rutor.org? Какой новый адрес рутор? Какое зеркало рутор? Не работает rutor.org и зеркала? Тогда наш торрент специально для вас. Rutor.in неофициальное зеркало rutor. В случае если у Вас заблокирован rutor или вдруг Вы не можете на него зайти, то Вы без труда сможете скачать бесплатно и без рекламы последние новинки кино, игр, сериалов и прочего у нас, на Rutor.in. Не нужно использовать прокси, чтобы зайти на рутор, достаточно воспользоваться нашим ресурсом. Все новые фильмы, игры, сериалы, книги и музыка за 2013 и 2014 годы через торрент бесплатно. Скачивайте фильмы в хорошем качестве, игры для пк, xbox, playstation без регистрации. У нас вы найдете новые Зарубежные сериалы и Русские сериалы 2013, 2014, 2015 годов. Оставайтесь с нами, качайте любимые фильмы, игры, сериалы, книги и музыку.