img image001 image001 image001 image001 image001 image001 image001 image001 image001 image001 image001 image001 image001 image001 image001

Planets Sun Sun Sun
Статистика раздачи
Автор: Nickolas3434 | Размер: 6.16 ГБ | Добавлен: 02 май 2016
Раздают: 1    Качают: 1
Скачать торрент
Скачать торрент
Описание торрента

СообщениеДобавлено: 02 май 2016 


Информация
Название: Утилизатор
Год выпуска: 2015
Жанр: ТВ-шоу, автошоу
Ведущий: Юрий Сидоренко
Описание:
Ржавые банки на колесах захламляют городские дворы, а упрямые автовладельцы заламывают цены на старые авто. Мы поможем навести порядок на улицах Москвы и безжалостно уничтожим ненужное железо. Все, что вам нужно – высокая автоэрудиция. При правильном ответе на все вопросы, можно получить неплохую сумму денег и решить – тратить ли ее на тюнинг или оставить себе, избавившись от старого металлического друга. А о том, как сделать это красиво, позаботится команда «Утилизатора». Скажем одно – от автомобиля не останется ни крошки.
Выпущено: Россия, ТК Перец, Че
Продолжительность: ~ 00:24:00 / Выпуск
Перевод: Не требуется (Русский)
Файл
Формат: AVI
Качество: WEBRip
Видео: XviD, 704x400 (16:9), ~ 1600 Кбит/с, 25 кадр/с, 0.229 bit/pixel
Аудио: Русский, MP3, 48000 Гц, 128 Кбит/с, 2 канала (Стерео)
Раздача ведётся путём добавления новых выпусков; при каждом добавлении создаётся новый торрент. Чтобы начать докачку новой серии, пользователям необходимо сделать следующее:
- Остановить скачивание.
- Удалить старый торрент у себя из клиента (старые серии удалять не надо).
- Скачать новый торрент и запустить его у себя в клиенте вместо старого, при этом указать клиенту путь в старую папку куда и должно происходить скачивание новых серий.
Ваш клиент при этом должен произвести хеширование (проверку) старой папки (если не производит сам - помогите ему сделать это), и будет докачивать только те серии которых у вас ещё нет. Старые серии при этом не удаляются, а продолжают раздаваться!
Если вы уже удалили старые серии, то предотвратить повторную закачку старых серий можно, отжав галочку в соответствующих местах при запуске нового торрента. По возможности, желательно не удалять старые серии как можно дольше, чтобы релизер не столько продолжал раздавать старые серии, а смог сконцентрироваться на новых.
General
Complete name : Utilizator.2015.e01.WEBRip.avi
Format : AVI
Format/Info : Audio Video Interleave
File size : 300 MiB
Duration : 24mn 2s
Overall bit rate : 1 747 Kbps
Writing application : VirtualDubMod 1.5.10.3 | www.virtualdub-fr.org || (build 2550/release)
Writing library : VirtualDubMod build 2550/release
Video
ID : 0
Format : MPEG-4 Visual
Format profile : Advanced Simple@L5
Format settings, BVOP : 1
Format settings, QPel : No
Format settings, GMC : No warppoints
Format settings, Matrix : Custom
Codec ID : XVID
Codec ID/Hint : XviD
Duration : 24mn 2s
Bit rate : 1 609 Kbps
Width : 704 pixels
Height : 400 pixels
Display aspect ratio : 16:9
Frame rate : 25.000 fps
Color space : YUV
Chroma subsampling : 4:2:0
Bit depth : 8 bits
Scan type : Progressive
Compression mode : Lossy
Bits/(Pixel*Frame) : 0.229
Stream size : 277 MiB (92%)
Writing library : XviD 73
Audio
ID : 1
Format : MPEG Audio
Format version : Version 1
Format profile : Layer 3
Codec ID : 55
Codec ID/Hint : MP3
Duration : 24mn 2s
Bit rate mode : Constant
Bit rate : 128 Kbps
Channel(s) : 2 channels
Sampling rate : 48.0 KHz
Compression mode : Lossy
Stream size : 22.0 MiB (7%)
Alignment : Aligned on interleaves
Interleave, duration : 40 ms (1.00 video frame)
Interleave, preload duration : 504 ms
Writing library : LAME3.99r
Encoding settings : -m s -V 4 -q 0 -lowpass 17 -b 128


Автор рипа - ivandubskoj



   Похожие торренты   Торрент   Размер 
В этой теме нет новых непрочитанных сообщений. Утилизатор [01-02х01-20 из 40] (2015) WEBRip от ivandubskoj

44 | 9

7.33 ГБ

В этой теме нет новых непрочитанных сообщений. 12 месяцев. Новая сказка (2015) WEBRip от ivandubskoj

984 | 39

700.71 МБ

В этой теме нет новых непрочитанных сообщений. Старшеклассники [02х01-26 из 167] (2007-2008) SATRip от ivandubskoj

0 | 5

9.22 ГБ

В этой теме нет новых непрочитанных сообщений. Старшеклассники [02х01-30 из 167] (2007-2008) SATRip от ivandubskoj

0 | 5

10.59 ГБ

В этой теме нет новых непрочитанных сообщений. Старшеклассники [02х01-31, 37-38 из 167] (2007-2008) SATRip от ivandubskoj

2 | 13

11.28 ГБ

В этой теме нет новых непрочитанных сообщений. Старшеклассники [02х01-03 из 167] (2007-2008) SATRip от ivandubskoj

2 | 8

2.05 ГБ

В этой теме нет новых непрочитанных сообщений. Старшеклассники [02х01-23 из 167] (2007-2008) SATRip от ivandubskoj

0 | 4

7.85 ГБ




Вы не можете начинать темы
Вы не можете отвечать на сообщения
Вы не можете редактировать свои сообщения
Вы не можете удалять свои сообщения
Вы не можете добавлять вложения

Перейти:  
Для Мосгорсуда, Роскомнадзора и рекламодателей: mosgorsud-torrent[собачка]yandex.ru
 Вход
ppkBB3cker v.2 © 2008-2014 @ PPK
[ Time : 2.241s | 15 Queries | GZIP : Off ]

Торрент трекер RUTOR.IN, Не можете зайти на rutor.org? Какой новый адрес рутор? Какое зеркало рутор? Не работает rutor.org и зеркала? Тогда наш торрент специально для вас. Rutor.in неофициальное зеркало rutor. В случае если у Вас заблокирован rutor или вдруг Вы не можете на него зайти, то Вы без труда сможете скачать бесплатно и без рекламы последние новинки кино, игр, сериалов и прочего у нас, на Rutor.in. Не нужно использовать прокси, чтобы зайти на рутор, достаточно воспользоваться нашим ресурсом. Все новые фильмы, игры, сериалы, книги и музыка за 2013 и 2014 годы через торрент бесплатно. Скачивайте фильмы в хорошем качестве, игры для пк, xbox, playstation без регистрации. У нас вы найдете новые Зарубежные сериалы и Русские сериалы 2013, 2014, 2015 годов. Оставайтесь с нами, качайте любимые фильмы, игры, сериалы, книги и музыку.
cron