img image001 image001 image001 image001 image001 image001 image001 image001 image001 image001 image001 image001 image001 image001 image001

Planets Sun Sun Sun
Статистика раздачи
Автор: Nickolas3434 | Размер: 1.44 ГБ | Добавлен: 02 май 2016
Раздают: 0    Качают: 0
Скачать торрент
Скачать торрент
Описание торрента

СообщениеДобавлено: 02 май 2016 

Теория Заговора. Хлеб


#77
Год выпуска: 30.04.2016
Страна: Россия
Студия: Первый Канал HD
Жанр: Документальный
Продолжительность: 0:47:01
Автор и руководитель цикла: Андрей Сычев
Режиссеры: Алексей Булейко, Кирилл Ващенко
Ведущий: Михаил Мамаев

Описание: Хлеб, сколько бы его ни клеймили диетологи – единственный продукт, который покупают чаще всего. Да что там говорить, утро многих начинается с любимого бутерброда. Если, правда, повезет.

Автор рипа: lrn
Автор записи: Taz
Сэмпл: sendfile

Тип релиза: HDTVRip 720p
Контейнер: MKV
Видео: 1280x720 (16:9), 25,000 fps, H264, ~4000 kbps avg, ~0.174 bit/pixel
Аудио: 48 kHz, AC3 Dolby Digital, 3/2 (L,C,R,l,r) + LFE ch, ~384.00 kbps avg

General
Unique ID : 212361956951572071429911948944988568468 (0x9FC36CD986711466AAB91802AC49FB94)
Complete name : E:uTorrent.TempTempTeoriya.Zagovora.(2016.04.30).HDTVRip.720p.x264-lrn.mkv
Format : Matroska
Format version : Version 4 / Version 2
File size : 1.44 GiB
Duration : 47mn 1s
Overall bit rate : 4 386 Kbps
Movie name : Teoriya.Zagovora.(2016.04.30).HDTVRip.720p.x264-lrn
Encoded date : UTC 2010-02-22 21:41:31
Writing application : mkvmerge v5.9.0 ('On The Loose') built on Dec 9 2012 15:37:01
Writing library : libebml v1.3.0 + libmatroska v1.4.0
Video
ID : 1
Format : AVC
Format/Info : Advanced Video Codec
Format profile : High@L4.1
Format settings, CABAC : Yes
Format settings, ReFrames : 8 frames
Codec ID : V_MPEG4/ISO/AVC
Duration : 47mn 1s
Bit rate : 4 000 Kbps
Width : 1 280 pixels
Height : 720 pixels
Display aspect ratio : 16:9
Frame rate mode : Constant
Frame rate : 25.000 fps
Color space : YUV
Chroma subsampling : 4:2:0
Bit depth : 8 bits
Scan type : Progressive
Bits/(Pixel*Frame) : 0.174
Stream size : 1.29 GiB (89%)
Writing library : x264 core 148 r2638 7599210
Encoding settings : cabac=1 / ref=8 / deblock=1:-3:-3 / analyse=0x3:0x133 / me=umh / subme=9 / psy=1 / psy_rd=1.00:0.00 / mixed_ref=1 / me_range=32 / chroma_me=1 / trellis=2 / 8x8dct=1 / cqm=0 / deadzone=21,11 / fast_pskip=1 / chroma_qp_offset=-2 / threads=12 / lookahead_threads=2 / sliced_threads=0 / nr=0 / decimate=1 / interlaced=0 / bluray_compat=0 / constrained_intra=0 / bframes=8 / b_pyramid=2 / b_adapt=2 / b_bias=0 / direct=3 / weightb=1 / open_gop=0 / weightp=2 / keyint=250 / keyint_min=25 / scenecut=40 / intra_refresh=0 / rc_lookahead=50 / rc=2pass / mbtree=1 / bitrate=4000 / ratetol=1.0 / qcomp=0.60 / qpmin=0 / qpmax=69 / qpstep=4 / cplxblur=20.0 / qblur=0.5 / vbv_maxrate=62500 / vbv_bufsize=78125 / nal_hrd=none / filler=0 / ip_ratio=1.40 / aq=1:1.00
Default : Yes
Forced : No
Statistics Tags Issue : mkvmerge v8.5.2 ('Crosses') 32bit 2016-05-02 07:22:30 / mkvmerge v5.9.0 ('On The Loose') built on Dec 9 2012 15:37:01 2010-02-22 21:41:31
FromStats_BitRate : 3999738
FromStats_Duration : 00:47:01.840000000
FromStats_FrameCount : 70546
FromStats_StreamSize : 1410827759
Audio
ID : 2
Format : AC-3
Format/Info : Audio Coding 3
Mode extension : CM (complete main)
Format settings, Endianness : Big
Codec ID : A_AC3
Duration : 47mn 1s
Bit rate mode : Constant
Bit rate : 384 Kbps
Channel(s) : 6 channels
Channel positions : Front: L C R, Side: L R, LFE
Sampling rate : 48.0 KHz
Frame rate : 31.250 fps (1536 spf)
Compression mode : Lossy
Stream size : 129 MiB (9%)
Language : Russian
Default : Yes
Forced : No
raw [info]: 1280x720p 1:1 @ 25/1 fps (cfr)
x264 [info]: using SAR=1/1
x264 [info]: using cpu capabilities: MMX2 SSE2Fast SSSE3 SSE4.2 AVX
x264 [info]: profile High, level 4.1
x264 [info]: frame I:1041 Avg QP:13.75 size:126658
x264 [info]: frame P:21055 Avg QP:16.92 size: 39482
x264 [info]: frame B:48450 Avg QP:19.65 size: 9240
x264 [info]: consecutive B-frames: 6.0% 7.2% 9.1% 66.6% 5.5% 4.6% 0.5% 0.2% 0.1%
x264 [info]: mb I I16..4: 5.5% 75.2% 19.3%
x264 [info]: mb P I16..4: 2.7% 13.5% 1.4% P16..4: 39.3% 20.4% 12.7% 0.7% 0.2% skip: 9.2%
x264 [info]: mb B I16..4: 0.3% 1.2% 0.1% B16..8: 33.9% 8.3% 1.9% direct: 6.3% skip:48.0% L0:37.9% L1:44.2% BI:17.9%
x264 [info]: 8x8 transform intra:76.2% inter:58.7%
x264 [info]: direct mvs spatial:97.8% temporal:2.2%
x264 [info]: coded y,uvDC,uvAC intra: 75.0% 83.0% 53.4% inter: 21.7% 23.4% 2.8%
x264 [info]: i16 v,h,dc,p: 24% 17% 5% 54%
x264 [info]: i8 v,h,dc,ddl,ddr,vr,hd,vl,hu: 13% 15% 9% 7% 10% 11% 12% 10% 13%
x264 [info]: i4 v,h,dc,ddl,ddr,vr,hd,vl,hu: 15% 14% 6% 8% 13% 12% 12% 9% 12%
x264 [info]: i8c dc,h,v,p: 36% 28% 20% 16%
x264 [info]: Weighted P-Frames: Y:2.2% UV:1.0%
x264 [info]: ref P L0: 59.2% 12.6% 14.5% 4.4% 3.4% 2.4% 2.1% 1.4% 0.2% 0.0%
x264 [info]: ref B L0: 86.0% 8.6% 2.6% 1.2% 0.8% 0.5% 0.3%
x264 [info]: ref B L1: 96.8% 3.2%
x264 [info]: kb/s:3999.74
encoded 70546 frames, 13.80 fps, 3999.74 kb/s



   Похожие торренты   Торрент   Размер 
В этой теме нет новых непрочитанных сообщений. Теория Заговора. Хлеб [30.04] (2016) HDTVRip-AVC

23 | 1

634.27 МБ

В этой теме нет новых непрочитанных сообщений. Теория заговора. Хлеб [Эфир 30.04] (2016) HDTVRip от GeneralFilm

127 | 0

675.53 МБ

В этой теме нет новых непрочитанных сообщений. Теория Заговора. Молоко [26.03] (2016) HDTVRip 720p

167 | 0

1.3 ГБ

В этой теме нет новых непрочитанных сообщений. Теория Заговора. Сладости [13.02] (2016) HDTVRip 720p

41 | 1

1.35 ГБ

В этой теме нет новых непрочитанных сообщений. Теория Заговора. Рыба [21.02] (2016) HDTVRip 720p

231 | 6

1.35 ГБ

В этой теме нет новых непрочитанных сообщений. Теория Заговора. Соль [06.02] (2016) HDTVRip 720p

247 | 8

1.35 ГБ

В этой теме нет новых непрочитанных сообщений. Теория Заговора. Бакалея [09.04] (2016) HDTVRip 720p

0 | 0

1.31 ГБ




Вы не можете начинать темы
Вы не можете отвечать на сообщения
Вы не можете редактировать свои сообщения
Вы не можете удалять свои сообщения
Вы не можете добавлять вложения

Перейти:  
Для Мосгорсуда, Роскомнадзора и рекламодателей: mosgorsud-torrent[собачка]yandex.ru
 Вход
ppkBB3cker v.2 © 2008-2014 @ PPK
[ Time : 0.051s | 17 Queries | GZIP : Off ]

Торрент трекер RUTOR.IN, Не можете зайти на rutor.org? Какой новый адрес рутор? Какое зеркало рутор? Не работает rutor.org и зеркала? Тогда наш торрент специально для вас. Rutor.in неофициальное зеркало rutor. В случае если у Вас заблокирован rutor или вдруг Вы не можете на него зайти, то Вы без труда сможете скачать бесплатно и без рекламы последние новинки кино, игр, сериалов и прочего у нас, на Rutor.in. Не нужно использовать прокси, чтобы зайти на рутор, достаточно воспользоваться нашим ресурсом. Все новые фильмы, игры, сериалы, книги и музыка за 2013 и 2014 годы через торрент бесплатно. Скачивайте фильмы в хорошем качестве, игры для пк, xbox, playstation без регистрации. У нас вы найдете новые Зарубежные сериалы и Русские сериалы 2013, 2014, 2015 годов. Оставайтесь с нами, качайте любимые фильмы, игры, сериалы, книги и музыку.
cron