img image001 image001 image001 image001 image001 image001 image001 image001 image001 image001 image001 image001 image001 image001 image001

Planets Sun Sun Sun
Статистика раздачи
Автор: Nickolas3434 | Размер: 1.1 ГБ | Добавлен: 06 май 2016
Раздают: 17    Качают: 0
Скачать торрент
Скачать торрент
Описание торрента

СообщениеДобавлено: 06 май 2016 

"Путь Христа". Документальный Фильм


#77
Год выпуска: 2016
Страна: Россия
Студия: Первый Канал HD | ООО «Контраст»
Жанр: Документальный
Продолжительность: 1:32:42
Режиссеры: Татьяна Артюкова

Описание: Библейские сюжеты мы представляем себе в основном по книгам и картинам. Фантазии художников создали в наших головах устойчивые образы: Тайная вечеря - длинный стол, Явление Христа народу - берег реки, Рождество - пещера с видом на зеленую долину. Андрей Рублев, Александр Иванов и Леонардо да Винчи никогда не бывали на Святой земле. Где же и как на самом деле могли происходить события, которые описывает Евангелие?

Автор рипа: lrn
Автор записи: noname
Сэмпл: sendfile

Тип релиза: HDTVRip-AVC
Контейнер: MKV
Видео: 1024x576 (16:9), 25,000 fps, H264, ~1500 kbps avg, ~0.102 bit/pixel
Аудио: 48 kHz, AC3 Dolby Digital, 2/0 (L,R) ch, ~192.00 kbps avg

General
Unique ID : 188714921583949289875507880087974108499 (0x8DF92BFDE92BC1DCA9B85FABAA9CDD53)
Complete name : E:uTorrent.TempTempPut.Hrista.2016.HDTVRip-AVC.x264-lrn.mkv
Format : Matroska
Format version : Version 4 / Version 2
File size : 1.10 GiB
Duration : 1h 32mn
Overall bit rate : 1 694 Kbps
Movie name : Put.Hrista.2016.HDTVRip-AVC.x264-lrn
Encoded date : UTC 2010-02-22 21:41:31
Writing application : mkvmerge v5.9.0 ('On The Loose') built on Dec 9 2012 15:37:01
Writing library : libebml v1.3.0 + libmatroska v1.4.0
Video
ID : 1
Format : AVC
Format/Info : Advanced Video Codec
Format profile : High@L4.1
Format settings, CABAC : Yes
Format settings, ReFrames : 8 frames
Codec ID : V_MPEG4/ISO/AVC
Duration : 1h 32mn
Bit rate : 1 500 Kbps
Width : 1 024 pixels
Height : 576 pixels
Display aspect ratio : 16:9
Frame rate mode : Constant
Frame rate : 25.000 fps
Color space : YUV
Chroma subsampling : 4:2:0
Bit depth : 8 bits
Scan type : Progressive
Bits/(Pixel*Frame) : 0.102
Stream size : 973 MiB (87%)
Writing library : x264 core 148 r2638 7599210
Encoding settings : cabac=1 / ref=8 / deblock=1:-3:-3 / analyse=0x3:0x133 / me=umh / subme=9 / psy=1 / psy_rd=1.00:0.00 / mixed_ref=1 / me_range=32 / chroma_me=1 / trellis=2 / 8x8dct=1 / cqm=0 / deadzone=21,11 / fast_pskip=1 / chroma_qp_offset=-2 / threads=12 / lookahead_threads=2 / sliced_threads=0 / nr=0 / decimate=1 / interlaced=0 / bluray_compat=0 / constrained_intra=0 / bframes=8 / b_pyramid=2 / b_adapt=2 / b_bias=0 / direct=3 / weightb=1 / open_gop=0 / weightp=2 / keyint=250 / keyint_min=25 / scenecut=40 / intra_refresh=0 / rc_lookahead=50 / rc=2pass / mbtree=1 / bitrate=1500 / ratetol=1.0 / qcomp=0.60 / qpmin=0 / qpmax=69 / qpstep=4 / cplxblur=20.0 / qblur=0.5 / vbv_maxrate=62500 / vbv_bufsize=78125 / nal_hrd=none / filler=0 / ip_ratio=1.40 / aq=1:1.00
Default : Yes
Forced : No
Statistics Tags Issue : mkvmerge v8.5.2 ('Crosses') 32bit 2016-05-04 13:57:35 / mkvmerge v5.9.0 ('On The Loose') built on Dec 9 2012 15:37:01 2010-02-22 21:41:31
FromStats_BitRate : 1499927
FromStats_Duration : 01:32:42.200000000
FromStats_FrameCount : 139055
FromStats_StreamSize : 1042861837
Audio
ID : 2
Format : AC-3
Format/Info : Audio Coding 3
Mode extension : CM (complete main)
Format settings, Endianness : Big
Codec ID : A_AC3
Duration : 1h 32mn
Bit rate mode : Constant
Bit rate : 192 Kbps
Channel(s) : 2 channels
Channel positions : Front: L R
Sampling rate : 48.0 KHz
Frame rate : 31.250 fps (1536 spf)
Compression mode : Lossy
Stream size : 127 MiB (11%)
Language : Russian
Default : Yes
Forced : No
raw [info]: 1024x576p 1:1 @ 25/1 fps (cfr)
x264 [info]: using SAR=1/1
x264 [info]: using cpu capabilities: MMX2 SSE2Fast SSSE3 SSE4.2 AVX
x264 [info]: profile High, level 4.1
x264 [info]: frame I:1054 Avg QP:18.60 size: 73136
x264 [info]: frame P:36651 Avg QP:21.64 size: 17187
x264 [info]: frame B:101350 Avg QP:25.11 size: 3314
x264 [info]: consecutive B-frames: 2.6% 4.7% 6.1% 67.3% 6.8% 9.0% 1.4% 1.7% 0.4%
x264 [info]: mb I I16..4: 9.4% 76.3% 14.3%
x264 [info]: mb P I16..4: 2.0% 6.8% 0.6% P16..4: 46.5% 13.6% 13.4% 0.4% 0.2% skip:16.4%
x264 [info]: mb B I16..4: 0.1% 0.6% 0.1% B16..8: 33.0% 3.8% 0.9% direct: 2.9% skip:58.6% L0:37.9% L1:50.9% BI:11.2%
x264 [info]: 8x8 transform intra:73.4% inter:68.6%
x264 [info]: direct mvs spatial:92.3% temporal:7.7%
x264 [info]: coded y,uvDC,uvAC intra: 66.7% 68.9% 28.6% inter: 13.7% 15.7% 0.6%
x264 [info]: i16 v,h,dc,p: 23% 19% 7% 51%
x264 [info]: i8 v,h,dc,ddl,ddr,vr,hd,vl,hu: 12% 10% 8% 8% 12% 14% 13% 11% 13%
x264 [info]: i4 v,h,dc,ddl,ddr,vr,hd,vl,hu: 14% 8% 4% 8% 14% 17% 13% 11% 12%
x264 [info]: i8c dc,h,v,p: 36% 27% 19% 18%
x264 [info]: Weighted P-Frames: Y:7.2% UV:4.5%
x264 [info]: ref P L0: 56.5% 15.5% 14.5% 4.0% 3.3% 2.4% 2.3% 1.4% 0.2% 0.0%
x264 [info]: ref B L0: 86.1% 7.7% 2.9% 1.4% 0.9% 0.6% 0.4%
x264 [info]: ref B L1: 96.3% 3.7%
x264 [info]: kb/s:1499.93
encoded 139055 frames, 28.90 fps, 1499.93 kb/s



   Похожие торренты   Торрент   Размер 
В этой теме нет новых непрочитанных сообщений. Путь Христа. Документальный Фильм (2016) HDTVRip 720p

69 | 0

2.72 ГБ

В этой теме нет новых непрочитанных сообщений. Необычный документальный фильм про уток / An Original DUCKumentary (2012) BDRip-AVC от -=HD-NET=-

7 | 2

944.88 МБ

В этой теме нет новых непрочитанных сообщений. Группа Микрон - Музыкальный документальный фильм о творчестве группы (2009) CAMRip

0 | 1

158.4 МБ

В этой теме нет новых непрочитанных сообщений. Ария. Документальный фильм "Городские истории" (2010) DVDRip

6 | 5

189.03 МБ

В этой теме нет новых непрочитанных сообщений. "Другие" - Первый документальный фильм о жизни гомосексуалов в России [НТВ] (2003) TVRip

0 | 4

159.71 МБ

В этой теме нет новых непрочитанных сообщений. Документальный фильм о Михаиле Горшенёве - "Король Шутов" (2014) WEB-DLRip 720p

495 | 49

973.48 МБ

В этой теме нет новых непрочитанных сообщений. Освобождение Европы. Документальный Цикл [01-05 из 05] (2016) HDTVRip-AVC

88 | 0

3.3 ГБ




Вы не можете начинать темы
Вы не можете отвечать на сообщения
Вы не можете редактировать свои сообщения
Вы не можете удалять свои сообщения
Вы не можете добавлять вложения

Перейти:  
Для Мосгорсуда, Роскомнадзора и рекламодателей: mosgorsud-torrent[собачка]yandex.ru
 Вход
ppkBB3cker v.2 © 2008-2014 @ PPK
[ Time : 0.040s | 15 Queries | GZIP : Off ]

Торрент трекер RUTOR.IN, Не можете зайти на rutor.org? Какой новый адрес рутор? Какое зеркало рутор? Не работает rutor.org и зеркала? Тогда наш торрент специально для вас. Rutor.in неофициальное зеркало rutor. В случае если у Вас заблокирован rutor или вдруг Вы не можете на него зайти, то Вы без труда сможете скачать бесплатно и без рекламы последние новинки кино, игр, сериалов и прочего у нас, на Rutor.in. Не нужно использовать прокси, чтобы зайти на рутор, достаточно воспользоваться нашим ресурсом. Все новые фильмы, игры, сериалы, книги и музыка за 2013 и 2014 годы через торрент бесплатно. Скачивайте фильмы в хорошем качестве, игры для пк, xbox, playstation без регистрации. У нас вы найдете новые Зарубежные сериалы и Русские сериалы 2013, 2014, 2015 годов. Оставайтесь с нами, качайте любимые фильмы, игры, сериалы, книги и музыку.