img image001 image001 image001 image001 image001 image001 image001 image001 image001 image001 image001 image001 image001 image001 image001

Planets Sun Sun Sun
Статистика раздачи
Автор: Nickolas3434 | Размер: 2.72 ГБ | Добавлен: 05 май 2016
Раздают: 64    Качают: 0
Скачать торрент
Скачать торрент
Описание торрента

СообщениеДобавлено: 05 май 2016 

"Путь Христа". Документальный Фильм


#77
Год выпуска: 2016
Страна: Россия
Студия: Первый Канал HD | ООО «Контраст»
Жанр: Документальный
Продолжительность: 1:32:42
Режиссеры: Татьяна Артюкова

Описание: Библейские сюжеты мы представляем себе в основном по книгам и картинам. Фантазии художников создали в наших головах устойчивые образы: Тайная вечеря - длинный стол, Явление Христа народу - берег реки, Рождество - пещера с видом на зеленую долину. Андрей Рублев, Александр Иванов и Леонардо да Винчи никогда не бывали на Святой земле. Где же и как на самом деле могли происходить события, которые описывает Евангелие?

Автор рипа: lrn
Автор записи: noname
Сэмпл: sendfile

Тип релиза: HDTVRip 720p
Контейнер: MKV
Видео: 1280x720 (16:9), 25,000 fps, H264, ~4000 kbps avg, ~0.181 bit/pixel
Аудио: 48 kHz, AC3 Dolby Digital, 2/0 (L,R) ch, ~192.00 kbps avg

General
Unique ID : 207304292719161478095834288148696797838 (0x9BF55AC02B942585B552664A4D40128E)
Complete name : E:uTorrent.TempTempPut.Hrista.2016.HDTVRip.720p.x264-lrn.mkv
Format : Matroska
Format version : Version 4 / Version 2
File size : 2.72 GiB
Duration : 1h 32mn
Overall bit rate : 4 194 Kbps
Movie name : Put.Hrista.2016.HDTVRip.720p.x264-lrn
Encoded date : UTC 2010-02-22 21:41:31
Writing application : mkvmerge v5.9.0 ('On The Loose') built on Dec 9 2012 15:37:01
Writing library : libebml v1.3.0 + libmatroska v1.4.0
Video
ID : 1
Format : AVC
Format/Info : Advanced Video Codec
Format profile : High@L4.1
Format settings, CABAC : Yes
Format settings, ReFrames : 8 frames
Codec ID : V_MPEG4/ISO/AVC
Duration : 1h 32mn
Bit rate : 4 000 Kbps
Width : 1 280 pixels
Height : 720 pixels
Display aspect ratio : 16:9
Frame rate mode : Constant
Frame rate : 25.000 fps
Color space : YUV
Chroma subsampling : 4:2:0
Bit depth : 8 bits
Scan type : Progressive
Bits/(Pixel*Frame) : 0.174
Stream size : 2.54 GiB (93%)
Writing library : x264 core 148 r2638 7599210
Encoding settings : cabac=1 / ref=8 / deblock=1:-3:-3 / analyse=0x3:0x133 / me=umh / subme=9 / psy=1 / psy_rd=1.00:0.00 / mixed_ref=1 / me_range=32 / chroma_me=1 / trellis=2 / 8x8dct=1 / cqm=0 / deadzone=21,11 / fast_pskip=1 / chroma_qp_offset=-2 / threads=12 / lookahead_threads=2 / sliced_threads=0 / nr=0 / decimate=1 / interlaced=0 / bluray_compat=0 / constrained_intra=0 / bframes=8 / b_pyramid=2 / b_adapt=2 / b_bias=0 / direct=3 / weightb=1 / open_gop=0 / weightp=2 / keyint=250 / keyint_min=25 / scenecut=40 / intra_refresh=0 / rc_lookahead=50 / rc=2pass / mbtree=1 / bitrate=4000 / ratetol=1.0 / qcomp=0.60 / qpmin=0 / qpmax=69 / qpstep=4 / cplxblur=20.0 / qblur=0.5 / vbv_maxrate=62500 / vbv_bufsize=78125 / nal_hrd=none / filler=0 / ip_ratio=1.40 / aq=1:1.00
Default : Yes
Forced : No
Statistics Tags Issue : mkvmerge v8.5.2 ('Crosses') 32bit 2016-05-04 12:00:37 / mkvmerge v5.9.0 ('On The Loose') built on Dec 9 2012 15:37:01 2010-02-22 21:41:31
FromStats_BitRate : 3999802
FromStats_Duration : 01:32:42.200000000
FromStats_FrameCount : 139055
FromStats_StreamSize : 2780962402
Audio
ID : 2
Format : AC-3
Format/Info : Audio Coding 3
Mode extension : CM (complete main)
Format settings, Endianness : Big
Codec ID : A_AC3
Duration : 1h 32mn
Bit rate mode : Constant
Bit rate : 192 Kbps
Channel(s) : 2 channels
Channel positions : Front: L R
Sampling rate : 48.0 KHz
Frame rate : 31.250 fps (1536 spf)
Compression mode : Lossy
Stream size : 127 MiB (5%)
Language : Russian
Default : Yes
Forced : No
raw [info]: 1280x720p 1:1 @ 25/1 fps (cfr)
x264 [info]: using SAR=1/1
x264 [info]: using cpu capabilities: MMX2 SSE2Fast SSSE3 SSE4.2 AVX
x264 [info]: profile High, level 4.1
x264 [info]: frame I:1037 Avg QP:14.93 size:135746
x264 [info]: frame P:37479 Avg QP:17.80 size: 44442
x264 [info]: frame B:100539 Avg QP:20.47 size: 9693
x264 [info]: consecutive B-frames: 2.6% 5.4% 5.7% 71.7% 5.6% 6.7% 1.0% 1.1% 0.2%
x264 [info]: mb I I16..4: 5.1% 80.1% 14.8%
x264 [info]: mb P I16..4: 1.8% 10.2% 0.9% P16..4: 44.9% 21.2% 15.0% 0.6% 0.2% skip: 5.2%
x264 [info]: mb B I16..4: 0.2% 0.9% 0.1% B16..8: 34.8% 7.0% 1.7% direct: 7.6% skip:47.8% L0:37.3% L1:45.3% BI:17.4%
x264 [info]: 8x8 transform intra:78.4% inter:63.4%
x264 [info]: direct mvs spatial:96.4% temporal:3.6%
x264 [info]: coded y,uvDC,uvAC intra: 76.1% 81.1% 47.3% inter: 24.0% 27.1% 2.1%
x264 [info]: i16 v,h,dc,p: 26% 16% 7% 50%
x264 [info]: i8 v,h,dc,ddl,ddr,vr,hd,vl,hu: 13% 12% 8% 8% 11% 12% 12% 11% 13%
x264 [info]: i4 v,h,dc,ddl,ddr,vr,hd,vl,hu: 14% 9% 5% 8% 14% 16% 12% 11% 11%
x264 [info]: i8c dc,h,v,p: 38% 25% 20% 17%
x264 [info]: Weighted P-Frames: Y:6.4% UV:4.2%
x264 [info]: ref P L0: 56.6% 13.5% 15.2% 4.3% 3.6% 2.5% 2.4% 1.6% 0.1% 0.0%
x264 [info]: ref B L0: 84.8% 8.7% 2.9% 1.5% 1.0% 0.7% 0.4%
x264 [info]: ref B L1: 96.6% 3.4%
x264 [info]: kb/s:3999.80
encoded 139055 frames, 16.37 fps, 3999.80 kb/s



   Похожие торренты   Торрент   Размер 
В этой теме нет новых непрочитанных сообщений. Путь Христа. Документальный Фильм (2016) HDTVRip-AVC

13 | 0

1.1 ГБ

В этой теме нет новых непрочитанных сообщений. Метеориты. Документальный фильм NASA (Discovery Channel) [2016, документальный, космос, IPTVRip] VO

36 | 2

436.18 МБ

В этой теме нет новых непрочитанных сообщений. Путь Баженова. Напролом (1 сезон: 1-5 выпуски) / (Иван Юдин) [2017, документальный, путешествия, приключения, WEB-DL 720p]

2 | 0

6.21 ГБ

В этой теме нет новых непрочитанных сообщений. Документальный фильм о Михаиле Горшенёве - "Король Шутов" (2014) WEB-DLRip 720p

457 | 37

973.48 МБ

В этой теме нет новых непрочитанных сообщений. Преображенцы. Фильм Аркадия Мамонтова (2016) HDTVRip 720p

74 | 9

1.3 ГБ

В этой теме нет новых непрочитанных сообщений. Афон. Восхождение. Фильм Аркадия Мамонтова (2016) HDTVRip 720p

650 | 16

1.31 ГБ

В этой теме нет новых непрочитанных сообщений. Бремя Цыган. Фильм Бориса Соболева (2016) HDTVRip 720p

14 | 2

2.72 ГБ




Вы не можете начинать темы
Вы не можете отвечать на сообщения
Вы не можете редактировать свои сообщения
Вы не можете удалять свои сообщения
Вы не можете добавлять вложения

Перейти:  
Для Мосгорсуда, Роскомнадзора и рекламодателей: mosgorsud-torrent[собачка]yandex.ru
 Вход
ppkBB3cker v.2 © 2008-2014 @ PPK
[ Time : 0.068s | 17 Queries | GZIP : Off ]

Торрент трекер RUTOR.IN, Не можете зайти на rutor.org? Какой новый адрес рутор? Какое зеркало рутор? Не работает rutor.org и зеркала? Тогда наш торрент специально для вас. Rutor.in неофициальное зеркало rutor. В случае если у Вас заблокирован rutor или вдруг Вы не можете на него зайти, то Вы без труда сможете скачать бесплатно и без рекламы последние новинки кино, игр, сериалов и прочего у нас, на Rutor.in. Не нужно использовать прокси, чтобы зайти на рутор, достаточно воспользоваться нашим ресурсом. Все новые фильмы, игры, сериалы, книги и музыка за 2013 и 2014 годы через торрент бесплатно. Скачивайте фильмы в хорошем качестве, игры для пк, xbox, playstation без регистрации. У нас вы найдете новые Зарубежные сериалы и Русские сериалы 2013, 2014, 2015 годов. Оставайтесь с нами, качайте любимые фильмы, игры, сериалы, книги и музыку.
cron