img image001 image001 image001 image001 image001 image001 image001 image001 image001 image001 image001 image001 image001 image001 image001

Planets Sun Sun Sun
Статистика раздачи
Автор: Nickolas3434 | Размер: 8.54 ГБ | Добавлен: 10 май 2016
Раздают: 68    Качают: 3
Скачать торрент
Скачать торрент
Описание торрента

СообщениеДобавлено: 10 май 2016 


Производство: Великобритания / BBC Worldwide, BBC Cymru Wales, Look Out Point, The Weinstein Company LLC
Жанр: Драма, Мелодрама, Военный, История
Режиссер: Том Харпер
Актеры: Пол Дано, Джеймс Нортон, Лили Джеймс, Эдриен Эдмондсон, Эшлин Лофтус, Грета Скакки, Джек Лауден, Таппенс Мидлтон, Анейрин Барнард, Джесси Бакли, Оливия Росс, Том Бёрк, Джим Бродбент, Каллум Тернер, Ребекка Фронт, Стивен Ри, Хлоя Пирри, Матьё Кассовиц, Мэттью Стэгг, Эмили Тааффе, Джиллиан Андерсон
Описание: Действие сериала развивается в России XIX века, охватывая период с 1805 по 1812 годы. В основу сюжета положен роман Льва Толстого «Война и Мир», основное внимание сфокусировано на судьбах Пьера Безухова, Андрея Болконского и Наташи Ростовой.

Продолжительность: ~00:59:00 серия
Качество видео: BDRip
Перевод: Профессиональный (многоголосый закадровый) х2
Вид субтитров: Вшитые, отключаемые
Язык субтитров: Русский, Английский
Видео: MPEG-4 AVC/H.264, ~2200 Kbps, 1024x576
Аудио 1: Русский AC3 5.1, 384 Kbps, 48.0 KHz (Многоголосый закадровый) LostFilm
Аудио 2: Русский AC3 2.0, 192 Kbps, 48.0 KHz (Многоголосый закадровый) NewStudio
Аудио 3: Английский AC3 5.1, 448 Kbps, 48.0 KHz (Оригинал)
Код:
Общее
Полное имя                               : 1 Серия.mkv
Формат                                   : Matroska
Версия формата                           : Version 1
Размер файла                             : 1,34 Гбайт
Продолжительность                        : 59 м.
Общий поток                              : 3225 Кбит/сек
Дата кодирования                         : UTC 2016-03-20 19:07:44
Программа кодирования                    : mkvmerge v2.4.1 ('Use Me') built on Dec  5 2008 18:30:05
Библиотека кодирования                   : libebml v0.7.7 + libmatroska v0.8.1
Видео
Идентификатор                            : 1
Формат                                   : AVC
Формат/Информация                        : Advanced Video Codec
Профиль формата                          : High@L4.1
Параметр CABAC формата                   : Да
Параметр ReFrames формата                : 10 кадров
Идентификатор кодека                     : V_MPEG4/ISO/AVC
Продолжительность                        : 59 м.
Битрейт                                  : 2200 Кбит/сек
Ширина                                   : 1024 пикселя
Высота                                   : 576 пикселей
Соотношение сторон                       : 16:9
Режим частоты кадров                     : Постоянный
Частота кадров                           : 25,000 кадров/сек
Цветовое пространство                    : YUV
Субдискретизация насыщенности            : 4:2:0
Битовая глубина                          : 8 бит
Тип развёртки                            : Прогрессивная
Бит/(Пиксели*Кадры)                      : 0.149
Размер потока                            : 909 Мбайт (66%)
Заголовок                                : 1 Серия
Библиотека кодирования                   : x264 core 148 r2638 7599210
Настройки программы                      : cabac=1 / ref=10 / deblock=1:-3:-3 / analyse=0x3:0x133 / me=umh / subme=10 / psy=1 / psy_rd=1.00:0.10 / mixed_ref=1 / me_range=48 / chroma_me=1 / trellis=2 / 8x8dct=1 / cqm=0 / deadzone=21,11 / fast_pskip=0 / chroma_qp_offset=-3 / threads=6 / lookahead_threads=1 / sliced_threads=0 / nr=0 / decimate=1 / interlaced=0 / bluray_compat=0 / constrained_intra=0 / bframes=5 / b_pyramid=2 / b_adapt=2 / b_bias=0 / direct=3 / weightb=1 / open_gop=0 / weightp=2 / keyint=250 / keyint_min=23 / scenecut=40 / intra_refresh=0 / rc_lookahead=40 / rc=2pass / mbtree=1 / bitrate=2200 / ratetol=1.0 / qcomp=0.60 / qpmin=10 / qpmax=51 / qpstep=4 / cplxblur=20.0 / qblur=0.5 / ip_ratio=1.40 / aq=1:1.00
Язык                                     : English
Default                                  : Да
Forced                                   : Нет
Аудио #1
Идентификатор                            : 2
Формат                                   : AC-3
Формат/Информация                        : Audio Coding 3
Расширение режима                        : CM (complete main)
Параметр Endianness формата              : Big
Идентификатор кодека                     : A_AC3
Продолжительность                        : 59 м.
Вид битрейта                             : Постоянный
Битрейт                                  : 384 Кбит/сек
Каналы                                   : 6 каналов
Расположение каналов                     : Front: L C R, Side: L R, LFE
Частота                                  : 48,0 КГц
Частота кадров                           : 31,250 кадров/сек (1536 spf)
Метод сжатия                             : С потерями
Размер потока                            : 163 Мбайт (12%)
Заголовок                                : AC3 (Многоголосый) LostFilm
Язык                                     : Russian
Default                                  : Да
Forced                                   : Нет
Аудио #2
Идентификатор                            : 3
Формат                                   : AC-3
Формат/Информация                        : Audio Coding 3
Расширение режима                        : CM (complete main)
Параметр Endianness формата              : Big
Идентификатор кодека                     : A_AC3
Продолжительность                        : 59 м.
Вид битрейта                             : Постоянный
Битрейт                                  : 192 Кбит/сек
Каналы                                   : 2 канала
Расположение каналов                     : Front: L R
Частота                                  : 48,0 КГц
Частота кадров                           : 31,250 кадров/сек (1536 spf)
Метод сжатия                             : С потерями
Размер потока                            : 81,6 Мбайт (6%)
Заголовок                                : AC3 (Многоголосый) NewStudio
Язык                                     : Russian
Default                                  : Нет
Forced                                   : Нет
Аудио #3
Идентификатор                            : 4
Формат                                   : AC-3
Формат/Информация                        : Audio Coding 3
Расширение режима                        : CM (complete main)
Параметр Endianness формата              : Big
Идентификатор кодека                     : A_AC3
Продолжительность                        : 59 м.
Вид битрейта                             : Постоянный
Битрейт                                  : 448 Кбит/сек
Каналы                                   : 6 каналов
Расположение каналов                     : Front: L C R, Side: L R, LFE
Частота                                  : 48,0 КГц
Частота кадров                           : 31,250 кадров/сек (1536 spf)
Метод сжатия                             : С потерями
Размер потока                            : 190 Мбайт (14%)
Заголовок                                : AC3 (Оригинал)
Язык                                     : English
Default                                  : Нет
Forced                                   : Нет
Текст #1
Идентификатор                            : 5
Формат                                   : UTF-8
Идентификатор кодека                     : S_TEXT/UTF8
Идентификатор кодека/Информация          : UTF-8 Plain Text
Заголовок                                : Русские
Язык                                     : Russian
Default                                  : Нет
Forced                                   : Нет
Текст #2
Идентификатор                            : 6
Формат                                   : UTF-8
Идентификатор кодека                     : S_TEXT/UTF8
Идентификатор кодека/Информация          : UTF-8 Plain Text
Заголовок                                : Английские
Язык                                     : English
Default                                  : Нет
Forced                                   : Нет

Раздача ведётся путём добавления новых серий. При каждом добавлении создётся новый торрент. Чтобы начать докачку новой серии, пользователям необходимо сделать следующее:
(1) остановить скачивание,
(2) удалить старый торрент у себя из клиента (старые серии удалять не надо),
(3) скачать новый торрент и запустить его у себя в клиенте вместо старого, при этом указать клиенту путь в старую папку, куда и должно происходить скачивание новых серий.
Ваш клиент при этом должен произвести хеширование (проверку) старой папки (если не производит сам - помогите ему сделать это), и будет докачивать только те серии, которых у вас ещё нет. Старые серии при этом не удаляются, а продолжают раздаваться!
Eсли вы уже удалили старые серии, то предотвратить повторную закачку старых серий можно, отжав галочку в соответсвующих местах при запуске нового торрента. По возможности, желательно не удалять старые серии как можно дольше, чтобы релизёр не столько продолжал раздавать старые серии, а смог сконцентрироваться на новых.

Скриншоты:




   Похожие торренты   Торрент   Размер 
В этой теме нет новых непрочитанных сообщений. Война и Мир / War and Peace [S01] (2016) BDRip-AVC | LostFilm

426 | 145

4.15 ГБ

В этой теме нет новых непрочитанных сообщений. Война и Мир / War and Peace [01х01-04 из 06] (2016) BDRip 720p | LostFilm

133 | 96

22.87 ГБ

В этой теме нет новых непрочитанных сообщений. Война и мир / War and Peace [01х01-02 из 06] (2016) WEB-DL 1080p | NewStudio

209 | 157

4.86 ГБ

В этой теме нет новых непрочитанных сообщений. Война и мир / War and Peace [01х01 из 06] (2016) WEB-DLRip | NewStudio

49 | 9

699.98 МБ

В этой теме нет новых непрочитанных сообщений. Война и мир / War and Peace [S01] (2016) WEB-DLRip от Scarabey | NewStudio

317 | 270

6.09 ГБ

В этой теме нет новых непрочитанных сообщений. Война и мир / War and Peace [01х01 из 06] (2016) HDTVRip | NewStudio

577 | 30

700.01 МБ

В этой теме нет новых непрочитанных сообщений. Война и мир / War and Peace [01х01-02 из 06] (2016) WEB-DLRip | NewStudio

425 | 161

1.37 ГБ




Вы не можете начинать темы
Вы не можете отвечать на сообщения
Вы не можете редактировать свои сообщения
Вы не можете удалять свои сообщения
Вы не можете добавлять вложения

Перейти:  
Для Мосгорсуда, Роскомнадзора и рекламодателей: mosgorsud-torrent[собачка]yandex.ru
 Вход
ppkBB3cker v.2 © 2008-2014 @ PPK
[ Time : 0.042s | 17 Queries | GZIP : Off ]

Торрент трекер RUTOR.IN, Не можете зайти на rutor.org? Какой новый адрес рутор? Какое зеркало рутор? Не работает rutor.org и зеркала? Тогда наш торрент специально для вас. Rutor.in неофициальное зеркало rutor. В случае если у Вас заблокирован rutor или вдруг Вы не можете на него зайти, то Вы без труда сможете скачать бесплатно и без рекламы последние новинки кино, игр, сериалов и прочего у нас, на Rutor.in. Не нужно использовать прокси, чтобы зайти на рутор, достаточно воспользоваться нашим ресурсом. Все новые фильмы, игры, сериалы, книги и музыка за 2013 и 2014 годы через торрент бесплатно. Скачивайте фильмы в хорошем качестве, игры для пк, xbox, playstation без регистрации. У нас вы найдете новые Зарубежные сериалы и Русские сериалы 2013, 2014, 2015 годов. Оставайтесь с нами, качайте любимые фильмы, игры, сериалы, книги и музыку.
cron