img image001 image001 image001 image001 image001 image001 image001 image001 image001 image001 image001 image001 image001 image001 image001

Planets Sun Sun Sun
Статистика раздачи
Автор: Nickolas3434 | Размер: 965.15 МБ | Добавлен: 10 май 2016
Раздают: 1    Качают: 0
Скачать торрент
Скачать торрент
Описание торрента

СообщениеДобавлено: 10 май 2016 


Информация о фильме
Название: Призраки Марли
Оригинальное название: Marley's Ghosts
Год выхода: 2015
Жанр: комедия
Режиссер: Бен Фуллер
В ролях: Сара Александер, Джо Джойнер, Николас Бернс, Джон Ханна, Миранда Хеннесси, Мина Анвар
О фильме:
У Марли редкий дар, который с трудом можно назвать благословением. Она может говорить с мертвыми людьми, среди которых на данный момент, к ее глубочайшему сожалению, находятся ее муж, любовник и местный викарий. Весьма неловко.

Страна: Великобритания
Студия: John Stanley Productions
Продолжительность: 3 x ~00:30:00
Перевод: Любительский многоголосый [Victory-Films]
Файл
Кодек: xvid
Качество: SATRip
Видео: 720x400, 1457 Kbps, 25.000 fps
Звук: AC3, 192 Kbps (2 ch)
Семпл

General
Complete name : /home/roma/Відео/Призраки Марли (Marley's Ghosts)/Marley's Ghosts - S01E03 - Victory-Films.avi
Format : AVI
Format/Info : Audio Video Interleave
File size : 347 MiB
Duration : 29mn 15s
Overall bit rate : 1 660 Kbps
Writing application : Lavf54.63.104
Video
ID : 0
Format : xvid
Codec ID : xvid
Duration : 29mn 14s
Bit rate : 1 457 Kbps
Width : 720 pixels
Height : 400 pixels
Display aspect ratio : 16:9
Frame rate : 25.000 fps
Scan type : Progressive
Bits/(Pixel*Frame) : 0.202
Stream size : 305 MiB (88%)
Audio
ID : 1
Format : AC-3
Format/Info : Audio Coding 3
Mode extension : CM (complete main)
Format settings, Endianness : Big
Codec ID : 2000
Duration : 29mn 15s
Bit rate mode : Constant
Bit rate : 192 Kbps
Channel(s) : 2 channels
Channel positions : Front: L R
Sampling rate : 48.0 KHz
Frame rate : 31.250 fps (1536 spf)
Bit depth : 16 bits
Compression mode : Lossy
Stream size : 40.2 MiB (12%)
Alignment : Aligned on interleaves
Interleave, duration : 32 ms (0.80 video frame)

Релиз от: Victory-Films



   Похожие торренты   Торрент   Размер 
В этой теме нет новых непрочитанных сообщений. Призраки Марли / Marley's Ghosts [s01] (2015) HDTVRip от Brazzass

182 | 40

965.15 МБ

В этой теме нет новых непрочитанных сообщений. Марли и я: Щенячьи годы / Марли и я 2 / Marley & Me: The Puppy Years (2011) BDRip-AVC

12 | 4

935.13 МБ

В этой теме нет новых непрочитанных сообщений. Марли и я: Щенячьи годы / Марли и я 2 / Marley & Me: The Puppy Years (2011) BDRip 1080p

9 | 4

7.37 ГБ

В этой теме нет новых непрочитанных сообщений. Марли и я: Щенячьи годы / Марли и я 2 / Marley & Me: The Puppy Years (2011) BDRip 720p | Лицензия R5

19 | 4

3.81 ГБ

В этой теме нет новых непрочитанных сообщений. Марли и я: Щенячьи годы / Марли и я 2 / Marley & Me: The Puppy Years (2011) BDRip-AVC от ExKinoRay | P | Лицензия

70 | 22

2.4 ГБ

В этой теме нет новых непрочитанных сообщений. Марли и я / Marley & Me (2008) HDRip | D

37 | 3

748.35 МБ

В этой теме нет новых непрочитанных сообщений. Боб Марли / Marley (2012) BDRip

4 | 1

2.91 ГБ




Вы не можете начинать темы
Вы не можете отвечать на сообщения
Вы не можете редактировать свои сообщения
Вы не можете удалять свои сообщения
Вы не можете добавлять вложения

Перейти:  
Для Мосгорсуда, Роскомнадзора и рекламодателей: mosgorsud-torrent[собачка]yandex.ru
 Вход
ppkBB3cker v.2 © 2008-2014 @ PPK
[ Time : 0.030s | 15 Queries | GZIP : Off ]

cron