img image001 image001 image001 image001 image001 image001 image001 image001 image001 image001 image001 image001 image001 image001 image001

Planets Sun Sun Sun
Статистика раздачи
Автор: Nickolas3434 | Размер: 4.37 ГБ | Добавлен: 10 май 2016
Раздают: 66    Качают: 3
Скачать торрент
Скачать торрент
Описание торрента

СообщениеДобавлено: 10 май 2016 

Страна: Россия
Производство: ВГТРК
Жанр: документальный, военный, история
Год выпуска: 2013-2015
Продолжительность: 04:22:25 (00:43:38 + 00:43:55 + 00:43:42 + 00:43:49 + 00:43:44 + 00:43:37)
Перевод: не требуется
Субтитры: нет
Оригинальная аудиодорожка: русский
Режиссер: Юрий Линкевич
Описание:
Документальные фильмы серии "Восход победы" впервые за несколько десятилетий нашей истории дают возможность зрителям увидеть "звездный период" блестящих побед русского солдата в Великой Отечественной войне. Свободные от пристрастных толкований, эти ленты одинаково далеки как от "военного энтузиазма" представлений о войне, так и от "комплекса неудачников", который был характерен для фильмов и книг о ней последние 20 лет.
Шесть серий цикла повествуют о тех сражениях Красной армии с войсками гитлеровской Германии, в которых военное могущество Третьего рейха сначала было подорвано, а затем и уничтожено. Курская битва лета 43-го, форсирование, казалось бы, неприступной линии обороны немцев на Днепровских кручах осенью 43-го серьезно подорвали мощь врага. Но самая блестящая полоса военных удач нашей армии пришлась на 1944 год. Он стал для фашистских войск тем же, чем 41-й - для нашей армии.
В фильмах цикла принимают участие ветераны войны, которые своей кровью и потом добывали эти победы. Их личные фронтовые истории, звучащие в фильмах, — самая драматическая и подлинная хроника Великой Отечественной. Они — последние носители образов и правды той войны, в которой сошлись ужасы боев, рукопашных схваток, танковых атак, ранений, увечий, смертей и торжество победителей, радость освобождения родной земли от врага, чувство гордости за хорошо сделанную тяжелую боевую работу.





Исходник: HDTVRip 720p части 1, 3-6 DVB часть 2
Качество: HDTVRip-AVC части 1, 3-6 SATRip-AVC часть 2
Формат: MKV
Видео: 1024x576 (16:9), 25 fps, H264 ~ 2188 kbps avg, 0.148 bit/pixel (части 1, 3-6)
Видео: 720->1024x576 (16:9), 25 fps, H264 ~ 2188 kbps avg, 0.211 bit/pixel (часть 2)
Аудио: 48 kHz, Dolby Digital AC3 2.0, 192 kbps
Раздача от:
01. Курская буря
02. Днепр - крах Восточного вала
03. Падение блокады и Крымская ловушка
04. Багратионовы клещи
05. Разгром германских союзников
06. Советский Блицкриг в Европе

HDTVRip-AVC
Общее
Полное имя : Voshod.pobedy.2013-2015.HDTVRip-AVC_[New-team]_by_AVP_Studio\03. Падение блокады и Крымская ловушка.mkv
Формат : Matroska
Версия формата : Version 2
Размер файла : 745 Мбайт
Продолжительность : 43 м.
Общий поток : 2382 Кбит/сек
Дата кодирования : UTC 2016-05-08 16:20:04
Программа кодирования : mkvmerge v6.1.0 ('Old Devil') built on Mar 4 2013 09:10:42
Библиотека кодирования : libebml v1.3.0 + libmatroska v1.4.0
Видео
Идентификатор : 1
Формат : AVC
Формат/Информация : Advanced Video Codec
Профиль формата : High@L4.1
Параметр CABAC формата : Да
Параметр ReFrames формата : 10 кадров
Идентификатор кодека : V_MPEG4/ISO/AVC
Продолжительность : 43 м.
Битрейт : 2188 Кбит/сек
Ширина : 1024 пикселя
Высота : 576 пикселей
Соотношение сторон : 16:9
Режим частоты кадров : Постоянный
Частота кадров : 25,000 кадров/сек
Цветовое пространство : YUV
Субдискретизация насыщенности : 4:2:0
Битовая глубина : 8 бит
Тип развёртки : Прогрессивная
Бит/(Пиксели*Кадры) : 0.148
Размер потока : 670 Мбайт (90%)
Библиотека кодирования : x264 core 148 r2597 e86f3a1
Настройки программы : cabac=1 / ref=10 / deblock=1:-3:-2 / analyse=0x3:0x113 / me=umh / subme=10 / psy=1 / psy_rd=1.00:0.00 / mixed_ref=1 / me_range=32 / chroma_me=1 / trellis=2 / 8x8dct=1 / cqm=0 / deadzone=21,11 / fast_pskip=1 / chroma_qp_offset=-2 / threads=6 / lookahead_threads=1 / sliced_threads=0 / nr=0 / decimate=0 / interlaced=0 / bluray_compat=0 / constrained_intra=0 / bframes=8 / b_pyramid=2 / b_adapt=2 / b_bias=0 / direct=3 / weightb=1 / open_gop=0 / weightp=2 / keyint=250 / keyint_min=25 / scenecut=40 / intra_refresh=0 / rc_lookahead=40 / rc=2pass / mbtree=1 / bitrate=2188 / ratetol=1.0 / qcomp=0.60 / qpmin=0 / qpmax=69 / qpstep=4 / cplxblur=20.0 / qblur=0.5 / ip_ratio=1.40 / aq=1:1.00
Default : Да
Forced : Нет
Аудио
Идентификатор : 2
Формат : AC-3
Формат/Информация : Audio Coding 3
Расширение режима : CM (complete main)
Параметр Endianness формата : Big
Идентификатор кодека : A_AC3
Продолжительность : 43 м.
Вид битрейта : Постоянный
Битрейт : 192 Кбит/сек
Каналы : 2 канала
Расположение каналов : Front: L R
Частота : 48,0 КГц
Частота кадров : 31,250 кадров/сек (1536 spf)
Метод сжатия : С потерями
Размер потока : 60,0 Мбайт (8%)
Default : Да
Forced : Нет
SATRip-AVC
Общее
Полное имя : Voshod.pobedy.2013-2015.HDTVRip-AVC_[New-team]_by_AVP_Studio\02. Днепр - крах Восточного вала.mkv
Формат : Matroska
Версия формата : Version 2
Размер файла : 748 Мбайт
Продолжительность : 43 м.
Общий поток : 2382 Кбит/сек
Дата кодирования : UTC 2016-05-08 14:55:42
Программа кодирования : mkvmerge v6.1.0 ('Old Devil') built on Mar 4 2013 09:10:42
Библиотека кодирования : libebml v1.3.0 + libmatroska v1.4.0
Видео
Идентификатор : 1
Формат : AVC
Формат/Информация : Advanced Video Codec
Профиль формата : High@L4.1
Параметр CABAC формата : Да
Параметр ReFrames формата : 10 кадров
Идентификатор кодека : V_MPEG4/ISO/AVC
Продолжительность : 43 м.
Битрейт : 2188 Кбит/сек
Ширина : 720 пикселей
Высота : 576 пикселей
Соотношение сторон : 16:9
Режим частоты кадров : Постоянный
Частота кадров : 25,000 кадров/сек
Стандарт вещания : PAL
Цветовое пространство : YUV
Субдискретизация насыщенности : 4:2:0
Битовая глубина : 8 бит
Тип развёртки : Прогрессивная
Бит/(Пиксели*Кадры) : 0.211
Размер потока : 673 Мбайт (90%)
Библиотека кодирования : x264 core 148 r2597 e86f3a1
Настройки программы : cabac=1 / ref=10 / deblock=1:-3:-2 / analyse=0x3:0x113 / me=umh / subme=10 / psy=1 / psy_rd=1.00:0.00 / mixed_ref=1 / me_range=32 / chroma_me=1 / trellis=2 / 8x8dct=1 / cqm=0 / deadzone=21,11 / fast_pskip=1 / chroma_qp_offset=-2 / threads=6 / lookahead_threads=1 / sliced_threads=0 / nr=0 / decimate=0 / interlaced=0 / bluray_compat=0 / constrained_intra=0 / bframes=8 / b_pyramid=2 / b_adapt=2 / b_bias=0 / direct=3 / weightb=1 / open_gop=0 / weightp=2 / keyint=250 / keyint_min=25 / scenecut=40 / intra_refresh=0 / rc_lookahead=40 / rc=2pass / mbtree=1 / bitrate=2188 / ratetol=1.0 / qcomp=0.60 / qpmin=0 / qpmax=69 / qpstep=4 / cplxblur=20.0 / qblur=0.5 / ip_ratio=1.40 / aq=1:1.00
Default : Да
Forced : Нет
Аудио
Идентификатор : 2
Формат : AC-3
Формат/Информация : Audio Coding 3
Расширение режима : CM (complete main)
Параметр Endianness формата : Big
Идентификатор кодека : A_AC3
Продолжительность : 43 м.
Вид битрейта : Постоянный
Битрейт : 192 Кбит/сек
Каналы : 2 канала
Расположение каналов : Front: L R
Частота : 48,0 КГц
Частота кадров : 31,250 кадров/сек (1536 spf)
Метод сжатия : С потерями
Размер потока : 60,3 Мбайт (8%)
Default : Да
Forced : Нет





   Похожие торренты   Торрент   Размер 
В этой теме нет новых непрочитанных сообщений. Восход победы [01-06 из 06] (2013-2015) HDTVRip, SATRip от New-Team

51 | 4

2.91 ГБ

В этой теме нет новых непрочитанных сообщений. Восход победы [1-6 из 6] (2013-2014) SATRip от Generalfilm

296 | 16

3.19 ГБ

В этой теме нет новых непрочитанных сообщений. Восход Победы [01-05 из 06] (2013-2014) HDTVRip от GeneralFilm

181 | 6

2.71 ГБ

В этой теме нет новых непрочитанных сообщений. Восход Победы. Курская буря (2013) IPTVRip от Pshichko66

89 | 3

700.11 МБ

В этой теме нет новых непрочитанных сообщений. Восход Победы: Советский Блицкриг в Европе (2015) HDTV 720p

124 | 10

1.28 ГБ

В этой теме нет новых непрочитанных сообщений. Восход тьмы / The Seeker: The Dark Is Rising (2007) HDTVRip 720p от NOLIMITS-TEAM

12 | 8

2.3 ГБ

В этой теме нет новых непрочитанных сообщений. Парад Победы. Екатеринбург. Военный Парад Победы 68 лет (2013) SATRip

1 | 2

1.18 ГБ




Вы не можете начинать темы
Вы не можете отвечать на сообщения
Вы не можете редактировать свои сообщения
Вы не можете удалять свои сообщения
Вы не можете добавлять вложения

Перейти:  
Для Мосгорсуда, Роскомнадзора и рекламодателей: mosgorsud-torrent[собачка]yandex.ru
 Вход
ppkBB3cker v.2 © 2008-2014 @ PPK
[ Time : 0.024s | 15 Queries | GZIP : Off ]

Торрент трекер RUTOR.IN, Не можете зайти на rutor.org? Какой новый адрес рутор? Какое зеркало рутор? Не работает rutor.org и зеркала? Тогда наш торрент специально для вас. Rutor.in неофициальное зеркало rutor. В случае если у Вас заблокирован rutor или вдруг Вы не можете на него зайти, то Вы без труда сможете скачать бесплатно и без рекламы последние новинки кино, игр, сериалов и прочего у нас, на Rutor.in. Не нужно использовать прокси, чтобы зайти на рутор, достаточно воспользоваться нашим ресурсом. Все новые фильмы, игры, сериалы, книги и музыка за 2013 и 2014 годы через торрент бесплатно. Скачивайте фильмы в хорошем качестве, игры для пк, xbox, playstation без регистрации. У нас вы найдете новые Зарубежные сериалы и Русские сериалы 2013, 2014, 2015 годов. Оставайтесь с нами, качайте любимые фильмы, игры, сериалы, книги и музыку.