img image001 image001 image001 image001 image001 image001 image001 image001 image001 image001 image001 image001 image001 image001 image001

Planets Sun Sun Sun
Статистика раздачи
Автор: Nickolas3434 | Размер: 2.22 ГБ | Добавлен: 10 май 2016
Раздают: 23    Качают: 1
Скачать торрент
Скачать торрент
Описание торрента

СообщениеДобавлено: 10 май 2016 

Информация о фильме
Оригинальное название: Апперкот для Гитлера
Год выхода: 2015
Жанр: Военный, драма, история, шпионский фильм
Режиссер: Денис Нейманд
В ролях: Антон Момот, Полина Толстун, Андрей Лёвин, Михаил Смирнов, Алексей Эйбоженко, Дмитрий Сутырин, Сергей Барковский, Елена Симонова, Дмитрий Гудим, Татьяна Аптикеева
О фильме:
Основанная на реальных событиях история рассказывает об операции советской разведки по физическому устранению фюрера нацисткой Германии Адольфа Гитлера. Под видом дезертира-перебежчика на задание в Германию направляют выдающегося боксера и разведчика Игоря Миклашевского. Пережив дознания и пытки, Игорь становится личным «гладиатором» штандартенфюрера и азартного игрока Вальтера Шлосса. Нежные чувства к связной - француженке русского происхождения Анастасии Шуваловой - помогают Игорю играть роль «своего» в тылу врага. Побеждая одного соперника за другим, он приближается к высшему обществу Третьего Рейха, а вместе с тем и к своей главной цели - Адольфу Гитлеру.

Страна: Россия
Студия: кинокомпания «Талан»
Продолжительность: 4 x ~ 00:45:00
Перевод: Не требуется
Файл
Кодек: MPEG-4 AVC
Качество: HDTVRip-AVC
Видео: 1020х572 (16:9), 25 fps, High@L4.1 ~ 1500 kbps
Звук: 48 kHz, AC3, 2 ch, ~ 192 kbps
General
Unique ID : 163395873645432955556720095122580041906 (0x7AECE68CB16A57E06AF057EE65EFF0B2)
Complete name : F:СериалыАпперкот для Гитлера [01-04 из 04] (2015) HDTVRIP_AVCApperkot.dlya.Hitlera.02.[2016].HDTVRIP_AVC.[-=DoMiNo=-].mkv
Format : Matroska
Format version : Version 4 / Version 2
File size : 569 MiB
Duration : 44mn 28s
Overall bit rate : 1 789 Kbps
Writing application : XviD4PSP 7.0.170
Writing library : Lavf56.25.101 / Lavf56.25.101
ENCODING_INFO : MPEGTS > MKV / H264 > X264 CRF 18.0 Custom / MP2 > AC3 CBR 192kbps
Video
ID : 1
Format : AVC
Format/Info : Advanced Video Codec
Format profile : High@L4.1
Format settings, CABAC : Yes
Format settings, ReFrames : 10 frames
Codec ID : V_MPEG4/ISO/AVC
Duration : 44mn 28s
Bit rate : 1 561 Kbps
Width : 1 020 pixels
Height : 572 pixels
Display aspect ratio : 16:9
Frame rate mode : Constant
Frame rate : 25.000 fps
Color space : YUV
Chroma subsampling : 4:2:0
Bit depth : 8 bits
Scan type : Progressive
Bits/(Pixel*Frame) : 0.107
Stream size : 497 MiB (87%)
Writing library : x264 core 148 r2597M e86f3a1
Encoding settings : cabac=1 / ref=10 / deblock=1:-3:-3 / analyse=0x3:0x133 / me=umh / subme=10 / psy=1 / psy_rd=1.00:0.10 / mixed_ref=1 / me_range=32 / chroma_me=1 / trellis=2 / 8x8dct=1 / cqm=0 / deadzone=21,11 / fast_pskip=0 / chroma_qp_offset=-3 / threads=6 / lookahead_threads=1 / sliced_threads=0 / nr=0 / decimate=1 / interlaced=0 / bluray_compat=0 / constrained_intra=0 / bframes=9 / b_pyramid=2 / b_adapt=2 / b_bias=0 / direct=3 / weightb=1 / open_gop=0 / weightp=2 / keyint=250 / keyint_min=25 / scenecut=40 / intra_refresh=0 / rc=crf / mbtree=0 / crf=18.0 / qcomp=0.60 / qpmin=18 / qpmax=69 / qpstep=4 / ip_ratio=1.40 / pb_ratio=1.30 / aq=1:1.00
Default : Yes
Forced : No
Color range : Limited
Color primaries : BT.709
Transfer characteristics : BT.709
Matrix coefficients : BT.709
Audio
ID : 2
Format : AC-3
Format/Info : Audio Coding 3
Mode extension : CM (complete main)
Format settings, Endianness : Big
Codec ID : A_AC3
Duration : 44mn 28s
Bit rate mode : Constant
Bit rate : 192 Kbps
Channel(s) : 2 channels
Channel positions : Front: L R
Sampling rate : 48.0 KHz
Frame rate : 31.250 fps (1536 spf)
Bit depth : 16 bits
Compression mode : Lossy
Delay relative to video : 27ms
Stream size : 61.1 MiB (11%)
Language : Russian
Default : Yes
Forced : No



   Похожие торренты   Торрент   Размер 
В этой теме нет новых непрочитанных сообщений. Апперкот для Гитлера [01-04 из 04] (2015) HDTVRip-AVC от Files-x

354 | 23

2.71 ГБ

В этой теме нет новых непрочитанных сообщений. Апперкот для Гитлера (1 серии из 4) (2015) HDTVRip от Files-x

1569 | 133

2.15 ГБ

В этой теме нет новых непрочитанных сообщений. Апперкот для Гитлера [01 из 04] (2015) HDTVRip 720p от MediaClub

348 | 7

1.85 ГБ

В этой теме нет новых непрочитанных сообщений. Апперкот для Гитлера [01 из 04] (2015) HDTVRip 720p от MediaClub

68 | 9

7.39 ГБ

В этой теме нет новых непрочитанных сообщений. Апперкот для Гитлера [01-04 из 04] (2016) SATRip от Generalfilm | КПК

302 | 9

709.52 МБ

В этой теме нет новых непрочитанных сообщений. Апперкот для Гитлера [01 из 04] (2016) HDTV 1080i от MediaClub

559 | 179

9.31 ГБ

В этой теме нет новых непрочитанных сообщений. Люди Гитлера / Hitler's People [01 из 02] (2015) HDTVRip от Kaztorrents | P1

110 | 39

672.27 МБ




Вы не можете начинать темы
Вы не можете отвечать на сообщения
Вы не можете редактировать свои сообщения
Вы не можете удалять свои сообщения
Вы не можете добавлять вложения

Перейти:  
Для Мосгорсуда, Роскомнадзора и рекламодателей: mosgorsud-torrent[собачка]yandex.ru
 Вход
ppkBB3cker v.2 © 2008-2014 @ PPK
[ Time : 0.023s | 15 Queries | GZIP : Off ]

Торрент трекер RUTOR.IN, Не можете зайти на rutor.org? Какой новый адрес рутор? Какое зеркало рутор? Не работает rutor.org и зеркала? Тогда наш торрент специально для вас. Rutor.in неофициальное зеркало rutor. В случае если у Вас заблокирован rutor или вдруг Вы не можете на него зайти, то Вы без труда сможете скачать бесплатно и без рекламы последние новинки кино, игр, сериалов и прочего у нас, на Rutor.in. Не нужно использовать прокси, чтобы зайти на рутор, достаточно воспользоваться нашим ресурсом. Все новые фильмы, игры, сериалы, книги и музыка за 2013 и 2014 годы через торрент бесплатно. Скачивайте фильмы в хорошем качестве, игры для пк, xbox, playstation без регистрации. У нас вы найдете новые Зарубежные сериалы и Русские сериалы 2013, 2014, 2015 годов. Оставайтесь с нами, качайте любимые фильмы, игры, сериалы, книги и музыку.