img image001 image001 image001 image001 image001 image001 image001 image001 image001 image001 image001 image001 image001 image001 image001

Planets Sun Sun Sun
Статистика раздачи
Автор: Nickolas3434 | Размер: 2.88 ГБ | Добавлен: 10 май 2016
Раздают: 51    Качают: 6
Скачать торрент
Скачать торрент
Описание торрента

СообщениеДобавлено: 10 май 2016 

Информация о фильме
Название: А зори здесь тихие...
Год выпуска: 2015
Страна: Россия
Жанр: драма, военный, история

Перевод: Не требуется
Продолжительность: 4x ~ 00:45:00

Режиссер: Ренат Давлетьяров
В ролях: Пётр Фёдоров (старшина Васков), Анастасия Микульчина (Рита Осянина), Женя Малахова (Женя Комелькова), Агния Кузнецова (Соня Гурвич), Софья Лебедева (Лиза Бричкина), Кристина Асмус (Галя Четвертак), Екатерина Вилкова (сержант Кирьянова), Анатолий Белый (майор), Дарья Мороз (Мария), Виктор Проскурин (Макарыч), Максим Дрозд (Алексей Лужин), Наталья Батрак (мать Осяниной)


Описание:
Май 1942 года. В самый разгар Великой Отечественной войны вдалеке от линии фронта, у забытого богом разъезда, фашисты выбрасывают десант с целью пробраться на Кировскую железную дорогу и Беломорско-Балтийский канал. Это не обычные солдаты-пехотинцы, это опытные, тренированные диверсанты, элита войск СС, «сверхлюди». А против них - старшина Васков и пять девчонок-зенитчиц. Казалось бы, бой местного значения, но на кону - стратегически важная транспортная артерия, соединяющая значимые центры страны. Смогут ли старшина и его хрупкие новобранцы предотвратить нацистскую диверсию, и какой ценой?

Рейтинг:


Качество: WEB-DLRip-AVC
Формат: MKV
Видео: AVC, 1024x576 (16:9), 2144 kbps, 25 fps, 0,145 bpp
Аудио: русский / AC3 / 2.0 / 48 kHz / 192 kbps / 16 bit |Оригинал|
Семпл


Релиз от: by -Lexx-


General
Unique ID : 233195119098230625406341363059138106939 (0xAF6FBF0BEB52A6BEAD93AFC5FA96163B)
Complete name : E:А зори здесь тихие... (2015)A.zori.zdes.tihie.(01.seriya).2015.WEB-DLRip-AVC.by.R.G.Resident.mkv
Format : Matroska
Format version : Version 4 / Version 2
File size : 744 MiB
Duration : 44mn 31s
Overall bit rate : 2 337 Kbps
Movie name : А зори здесь тихие... (2015) 1 серия WEB-DLRip-AVC by R.G. Resident
Encoded date : UTC 2016-05-10 05:11:49
Writing application : mkvmerge v9.1.0 ('Little Earthquakes') 64bit
Writing library : libebml v1.3.3 + libmatroska v1.4.4
DURATION : 00:44:31.872000000
NUMBER_OF_FRAMES : 83496
NUMBER_OF_BYTES : 64124928
_STATISTICS_WRITING_APP : mkvmerge v9.1.0 ('Little Earthquakes') 64bit
_STATISTICS_WRITING_DATE_UTC : 2016-05-10 05:11:49
_STATISTICS_TAGS : BPS DURATION NUMBER_OF_FRAMES NUMBER_OF_BYTES
Video
ID : 1
Format : AVC
Format/Info : Advanced Video Codec
Format profile : High@L4.1
Format settings, CABAC : Yes
Format settings, ReFrames : 9 frames
Codec ID : V_MPEG4/ISO/AVC
Duration : 44mn 31s
Bit rate : 2 144 Kbps
Width : 1 024 pixels
Height : 576 pixels
Display aspect ratio : 16:9
Frame rate : 25.000 fps
Color space : YUV
Chroma subsampling : 4:2:0
Bit depth : 8 bits
Scan type : Progressive
Bits/(Pixel*Frame) : 0.145
Stream size : 668 MiB (90%)
Title : -Lexx-
Writing library : x264 core 146 r2538 121396c
Encoding settings : cabac=1 / ref=9 / deblock=1:-2:-2 / analyse=0x3:0x113 / me=umh / subme=11 / psy=1 / psy_rd=1.00:0.10 / mixed_ref=1 / me_range=48 / chroma_me=1 / trellis=2 / 8x8dct=1 / cqm=0 / deadzone=21,11 / fast_pskip=0 / chroma_qp_offset=-3 / threads=6 / lookahead_threads=2 / sliced_threads=0 / nr=0 / decimate=1 / interlaced=0 / bluray_compat=0 / constrained_intra=0 / bframes=9 / b_pyramid=2 / b_adapt=2 / b_bias=0 / direct=3 / weightb=1 / open_gop=0 / weightp=2 / keyint=250 / keyint_min=25 / scenecut=40 / intra_refresh=0 / rc=2pass / mbtree=0 / bitrate=2144 / ratetol=1.0 / qcomp=0.60 / qpmin=0 / qpmax=69 / qpstep=4 / cplxblur=20.0 / qblur=0.5 / ip_ratio=1.40 / pb_ratio=1.30 / aq=1:1.00
Language : English
Default : Yes
Forced : No
DURATION : 00:44:31.880000000
NUMBER_OF_FRAMES : 66797
NUMBER_OF_BYTES : 715876892
_STATISTICS_WRITING_APP : mkvmerge v9.1.0 ('Little Earthquakes') 64bit
_STATISTICS_WRITING_DATE_UTC : 2016-05-10 05:11:49
_STATISTICS_TAGS : BPS DURATION NUMBER_OF_FRAMES NUMBER_OF_BYTES
Audio
ID : 2
Format : AC-3
Format/Info : Audio Coding 3
Mode extension : CM (complete main)
Codec ID : A_AC3
Duration : 44mn 31s
Bit rate mode : Constant
Bit rate : 192 Kbps
Channel(s) : 2 channels
Channel positions : Front: L R
Sampling rate : 48.0 KHz
Bit depth : 16 bits
Compression mode : Lossy
Stream size : 61.2 MiB (8%)
Title : Оригинал
Language : Russian
Default : Yes
Forced : No



   Похожие торренты   Торрент   Размер 
В этой теме нет новых непрочитанных сообщений. А зори здесь тихие... [01-04 из 04] (2015) WEB-DLRip | КПК | Расширенная версия

21 | 0

754.7 МБ

В этой теме нет новых непрочитанных сообщений. А зори здесь тихие... [01 из 04] (2015) WEB-DLRip от ExKinoRay | Расширенная версия

12 | 3

2.73 ГБ

В этой теме нет новых непрочитанных сообщений. А зори здесь тихие... [01-04 из 04] (2015) WEB-DLRip-AVC от ExKinoRay | Расширенная версия

249 | 2

4.16 ГБ

В этой теме нет новых непрочитанных сообщений. А зори здесь тихие... [1-4 серия из 4] (2015) WEB-DLRip от MegaPeer | Расширенная версия

9 | 0

1.37 ГБ

В этой теме нет новых непрочитанных сообщений. А зори здесь тихие... [01-04 из 04] (2015) HDTVRip-AVC от Files-x | Расширенная версия

13 | 2

2.58 ГБ

В этой теме нет новых непрочитанных сообщений. А зори здесь тихие... [01-04 из 04] (2015) HDTVRip от GeneralFilm | Расширенная версия

68 | 1

1.45 ГБ

В этой теме нет новых непрочитанных сообщений. А зори здесь тихие... [01 из 04] (2015) WEB-DL 720p от ExKinoRay | Расширенная версия

23 | 2

3.7 ГБ




Вы не можете начинать темы
Вы не можете отвечать на сообщения
Вы не можете редактировать свои сообщения
Вы не можете удалять свои сообщения
Вы не можете добавлять вложения

Перейти:  
Для Мосгорсуда, Роскомнадзора и рекламодателей: mosgorsud-torrent[собачка]yandex.ru
 Вход
ppkBB3cker v.2 © 2008-2014 @ PPK
[ Time : 0.068s | 16 Queries | GZIP : Off ]

Торрент трекер RUTOR.IN, Не можете зайти на rutor.org? Какой новый адрес рутор? Какое зеркало рутор? Не работает rutor.org и зеркала? Тогда наш торрент специально для вас. Rutor.in неофициальное зеркало rutor. В случае если у Вас заблокирован rutor или вдруг Вы не можете на него зайти, то Вы без труда сможете скачать бесплатно и без рекламы последние новинки кино, игр, сериалов и прочего у нас, на Rutor.in. Не нужно использовать прокси, чтобы зайти на рутор, достаточно воспользоваться нашим ресурсом. Все новые фильмы, игры, сериалы, книги и музыка за 2013 и 2014 годы через торрент бесплатно. Скачивайте фильмы в хорошем качестве, игры для пк, xbox, playstation без регистрации. У нас вы найдете новые Зарубежные сериалы и Русские сериалы 2013, 2014, 2015 годов. Оставайтесь с нами, качайте любимые фильмы, игры, сериалы, книги и музыку.
cron