img image001 image001 image001 image001 image001 image001 image001 image001 image001 image001 image001 image001 image001 image001 image001

Planets Sun Sun Sun
Статистика раздачи
Автор: Nickolas3434 | Размер: 1.39 ГБ | Добавлен: 15 май 2016
Раздают: 33    Качают: 0
Скачать торрент
Скачать торрент
Описание торрента

СообщениеДобавлено: 15 май 2016 

Евровидение 2016. 2-й Полуфинал / Eurovision 2016: Second Semi-Final


#77
Год выпуска: 2016
Место проведения: «Ericsson Globe» Стокгольм, Швеция.
Канал: Россия | Россия HD
Жанр: Pop
Общая продолжительность: 1:57:31
Ведущие: Монс Сельмерлёв, Швеция Петра Меде
Режиссер: Йон Ула Санн
Комментаторы: Эрнест Мацкявичюс и Дмитрий Губерниев

Описание: Конкурс песни Евровидение 2016 - 61-й конкурс песни «Евровидение», который состоится в Стокгольме, столице Швеции. Страна стала победительницей предыдущего конкурса «Евровидение 2015», прошедшего в Вене (Австрия), с песней «Heroes» в исполнении Монса Сельмерлёва, набравшего 365 баллов. Даты полуфиналов - 10 мая и 12 мая, финал конкурса состоится 14 мая 2016 года. Швеция будет принимать у себя конкурс в шестой раз, стране понадобилось 3 года для того, чтобы повторить успех 2012 года, где победителем стала Лорин.
Конкурс будет проводить шведская национальная телерадиокомпания SVT под руководством Европейского вещательного союза. В конкурсе примут участие 42 страны. Об этом стало известно 26 ноября 2015 года. На конкурс вернулись Болгария, Босния и Герцеговина, Украина и Хорватия. Свое участие продолжает Австралия - страна-дебютант прошлого года. От участия в этом году отказалась Португалия, из-за долгов перед Европейским вещательным союзом отстранена Румыния. Кроме них участие в конкурсе не возобновили ещё четырнадцать стран.

Автор рипа: lrn
Автор записи: mydimka
Сэмпл: sendfile

Тип релиза: HDTVRip-AVC
Контейнер: MKV
Видео: 1024x576 (16:9), 25,000 fps, H264, ~1500 kbps avg, ~0.102 bit/pixel
Аудио: 48 kHz, AC3 Dolby Digital, 2/0 (L,R) ch, ~192.00 kbps avg

01 - [Латвия] - Юстс - «Heartbeat»
02 - [Польша] - Михал Шпак - «Color of Your Life»
03 - [Швейцария] - Rykka - «The Last of Our Kind»
04 - [Израиль] - Хови Стар - «Made of Stars»
05 - [Белоруссия] - IVAN - «Help You Fly»
06 - [Сербия] - Саня Вучич - «Goodbye»
07 - [Ирландия] - Никки Бирн - «Sunlight»
08 - [Республика Македония] - Калиопи - «Дона»
09 - [Литва] - Донни Монтелл - «I’ve Been Waiting for This Night»
10 - [Австралия] - Дэми Им - «Sound of Silence»
11 - [Словения] - ManuElla - «Blue and Red»
12 - [Болгария] - Поли Генова - «If Love Was a Crime»
13 - [Дания] - Lighthouse X - «Soldiers of Love»
14 - [Украина] - Джамала - «1944»
15 - [Норвегия] - Агнет Йонсен - «Icebreaker»
16 - [Грузия] - Nika Kocharov & Young Georgian Lolitaz - «Midnight Gold»
17 - [Албания] - Энеда Тарифа - «Fairytale»
18 - [Бельгия] - Лаура Тесоро - «What’s the Pressure?»
General
Unique ID : 189833595625268042789134598328688741250 (0x8ED09EE16184F96BB0D209E4A24E8B82)
Complete name : E:uTorrent.TempTempEurovision.2016.Second.Semi-Final.HDTVRip-AVC.x264-RUS-lrn.mkv
Format : Matroska
Format version : Version 4 / Version 2
File size : 1.39 GiB
Duration : 1h 57mn
Overall bit rate : 1 694 Kbps
Movie name : Eurovision.2016.Second.Semi-Final.HDTVRip-AVC.x264-RUS-lrn
Encoded date : UTC 2010-02-22 21:41:31 / UTC
Writing application : mkvmerge v5.9.0 ('On The Loose') built on Dec 9 2012 15:37:01
Writing library : libebml v1.3.0 + libmatroska v1.4.0 / Lavf55.12.0
Video
ID : 1
Format : AVC
Format/Info : Advanced Video Codec
Format profile : High@L4.1
Format settings, CABAC : Yes
Format settings, ReFrames : 8 frames
Codec ID : V_MPEG4/ISO/AVC
Duration : 1h 57mn
Bit rate : 1 500 Kbps
Width : 1 024 pixels
Height : 576 pixels
Display aspect ratio : 16:9
Frame rate mode : Constant
Frame rate : 25.000 fps
Color space : YUV
Chroma subsampling : 4:2:0
Bit depth : 8 bits
Scan type : Progressive
Bits/(Pixel*Frame) : 0.102
Stream size : 1.21 GiB (87%)
Writing library : x264 core 142 r2479 dd79a61
Encoding settings : cabac=1 / ref=8 / deblock=1:-3:-3 / analyse=0x3:0x133 / me=umh / subme=9 / psy=1 / psy_rd=1.00:0.00 / mixed_ref=1 / me_range=32 / chroma_me=1 / trellis=2 / 8x8dct=1 / cqm=0 / deadzone=21,11 / fast_pskip=1 / chroma_qp_offset=-2 / threads=12 / lookahead_threads=2 / sliced_threads=0 / nr=0 / decimate=1 / interlaced=0 / bluray_compat=0 / constrained_intra=0 / bframes=8 / b_pyramid=2 / b_adapt=2 / b_bias=0 / direct=3 / weightb=1 / open_gop=0 / weightp=2 / keyint=250 / keyint_min=25 / scenecut=40 / intra_refresh=0 / rc_lookahead=50 / rc=2pass / mbtree=1 / bitrate=1500 / ratetol=1.0 / qcomp=0.60 / qpmin=0 / qpmax=69 / qpstep=4 / cplxblur=20.0 / qblur=0.5 / vbv_maxrate=62500 / vbv_bufsize=78125 / nal_hrd=none / filler=0 / ip_ratio=1.40 / aq=1:1.00
Default : Yes
Forced : No
Color range : Limited
Color primaries : BT.709
Transfer characteristics : BT.709
Matrix coefficients : BT.709
Audio
ID : 2
Format : AC-3
Format/Info : Audio Coding 3
Mode extension : CM (complete main)
Format settings, Endianness : Big
Codec ID : A_AC3
Duration : 1h 57mn
Bit rate mode : Constant
Bit rate : 192 Kbps
Channel(s) : 2 channels
Channel positions : Front: L R
Sampling rate : 48.0 KHz
Frame rate : 31.250 fps (1536 spf)
Compression mode : Lossy
Delay relative to video : -5ms
Stream size : 161 MiB (11%)
Language : Russian
Default : Yes
Forced : No
raw [info]: 1024x576p 1:1 @ 25/1 fps (cfr)
x264 [info]: using SAR=1/1
x264 [info]: using cpu capabilities: MMX2 SSE2Fast SSSE3 SSE4.2 AVX
x264 [info]: profile High, level 4.1
x264 [info]: frame I:1189 Avg QP:22.21 size: 38199
x264 [info]: frame P:53620 Avg QP:25.53 size: 13265
x264 [info]: frame B:121490 Avg QP:28.32 size: 4655
x264 [info]: consecutive B-frames: 5.7% 5.9% 11.4% 67.4% 5.8% 2.9% 0.4% 0.3% 0.1%
x264 [info]: mb I I16..4: 23.8% 58.3% 17.9%
x264 [info]: mb P I16..4: 11.2% 15.3% 2.1% P16..4: 36.3% 9.5% 6.6% 0.3% 0.1% skip:18.5%
x264 [info]: mb B I16..4: 1.1% 1.7% 0.3% B16..8: 33.6% 5.9% 1.4% direct: 4.6% skip:51.4% L0:40.1% L1:49.9% BI: 9.9%
x264 [info]: 8x8 transform intra:54.1% inter:65.3%
x264 [info]: direct mvs spatial:85.6% temporal:14.4%
x264 [info]: coded y,uvDC,uvAC intra: 38.4% 65.3% 22.9% inter: 11.9% 18.9% 1.3%
x264 [info]: i16 v,h,dc,p: 35% 21% 11% 32%
x264 [info]: i8 v,h,dc,ddl,ddr,vr,hd,vl,hu: 14% 9% 12% 8% 11% 12% 12% 11% 12%
x264 [info]: i4 v,h,dc,ddl,ddr,vr,hd,vl,hu: 13% 11% 8% 8% 12% 12% 12% 10% 14%
x264 [info]: i8c dc,h,v,p: 32% 27% 21% 19%
x264 [info]: Weighted P-Frames: Y:3.9% UV:2.9%
x264 [info]: ref P L0: 55.4% 13.8% 14.7% 5.2% 3.6% 2.7% 2.5% 1.7% 0.4% 0.0%
x264 [info]: ref B L0: 85.6% 7.5% 3.2% 1.5% 1.1% 0.7% 0.4%
x264 [info]: ref B L1: 96.7% 3.3%
x264 [info]: kb/s:1499.96
encoded 176299 frames, 23.56 fps, 1499.96 kb/s



   Похожие торренты   Торрент   Размер 
В этой теме нет новых непрочитанных сообщений. Евровидение 2016. 1-й Полуфинал / Eurovision 2016: First Semi-Final (2016) HDTVRip-AVC | Россия HD

0 | 0

1.4 ГБ

В этой теме нет новых непрочитанных сообщений. Евровидение 2016. Финал / Eurovision 2016: Final (2016) HDTVRip-AVC | Россия HD

25 | 3

2.57 ГБ

В этой теме нет новых непрочитанных сообщений. Евровидение 2016. 1-2-й полуфинал + Финал / Eurovision Song Contest 2016 (2016) HDTVRip 720p от HDLine

35 | 112

19.36 ГБ

В этой теме нет новых непрочитанных сообщений. Евровидение 2016. 1-2-й полуфинал / Eurovision Song Contest 2016 (2016) HDTVRip 720p от HDLine

49 | 25

10.17 ГБ

В этой теме нет новых непрочитанных сообщений. Евровидение 2016. 1-й полуфинал / Eurovision Song Contest 2016 (2016) HDTVRip 1080p от HDLine

19 | 5

4.91 ГБ

В этой теме нет новых непрочитанных сообщений. Евровидение 2013: 1-й полуфинал / Eurovision 2013: First Semi-Final (2013) HDTVRip AVC

1 | 1

2 ГБ

В этой теме нет новых непрочитанных сообщений. Евровидение 2016. 1-й полуфинал / Eurovision Song Contest 2016 (2016) HDTVRip 720p

122 | 3

1.98 ГБ




Вы не можете начинать темы
Вы не можете отвечать на сообщения
Вы не можете редактировать свои сообщения
Вы не можете удалять свои сообщения
Вы не можете добавлять вложения

Перейти:  
Для Мосгорсуда, Роскомнадзора и рекламодателей: mosgorsud-torrent[собачка]yandex.ru
 Вход
ppkBB3cker v.2 © 2008-2014 @ PPK
[ Time : 0.035s | 15 Queries | GZIP : Off ]

Торрент трекер RUTOR.IN, Не можете зайти на rutor.org? Какой новый адрес рутор? Какое зеркало рутор? Не работает rutor.org и зеркала? Тогда наш торрент специально для вас. Rutor.in неофициальное зеркало rutor. В случае если у Вас заблокирован rutor или вдруг Вы не можете на него зайти, то Вы без труда сможете скачать бесплатно и без рекламы последние новинки кино, игр, сериалов и прочего у нас, на Rutor.in. Не нужно использовать прокси, чтобы зайти на рутор, достаточно воспользоваться нашим ресурсом. Все новые фильмы, игры, сериалы, книги и музыка за 2013 и 2014 годы через торрент бесплатно. Скачивайте фильмы в хорошем качестве, игры для пк, xbox, playstation без регистрации. У нас вы найдете новые Зарубежные сериалы и Русские сериалы 2013, 2014, 2015 годов. Оставайтесь с нами, качайте любимые фильмы, игры, сериалы, книги и музыку.