img image001 image001 image001 image001 image001 image001 image001 image001 image001 image001 image001 image001 image001 image001 image001

Planets Sun Sun Sun
Статистика раздачи
Автор: Nickolas3434 | Размер: 1.02 ГБ | Добавлен: 15 май 2016
Раздают: 1    Качают: 0
Скачать торрент
Скачать торрент
Описание торрента

СообщениеДобавлено: 15 май 2016 

Красная Армия / Красная Машина / Red Army


#77
Год выпуска: 2014
Страна: США | Россия | Gabriel Polsky Productions
Жанр: Документальный
Продолжительность: 1:17:11
Перевод: Профессиональный (многоголосый закадровый) | "Первого Канала"
Режиссеры: Гейб Польски / Gabe Polsky

Описание: Фильм о Советском Союзе и самой успешной в истории спорта команде — хоккеистах сборной СССР. Рассказ о превращении из национального героя в политического врага ведётся с точки зрения Вячеслава Фетисова. Это повествование о том, как в спорте отразились социальные и культурные изменения в стране, о взлёте и падении национальной сборной по хоккею.


Автор рипа: lrn
Автор записи: GeneralFilm
Сэмпл: sendfile

Тип релиза: HDTVRip-AVC
Контейнер: MKV
Видео: 1024x576 (16:9), 25,000 fps, H264, ~1500 kbps avg, ~0.102 bit/pixel
Аудио: 48 kHz, AC3 Dolby Digital, 3/2 (L,C,R,l,r) + LFE ch, ~384.00 kbps avg

General
Unique ID : 233600037475048446567213352710366480484 (0xAFBDBB105B0CCB5997934736627EC864)
Complete name : E:uTorrent.TempTempRed.Army.2014.HDTVRip-AVC.x264-RUS-lrn.mkv
Format : Matroska
Format version : Version 4 / Version 2
File size : 1.02 GiB
Duration : 1h 17mn
Overall bit rate : 1 884 Kbps
Movie name : Red.Army.2014.HDTVRip-AVC.x264-RUS-lrn
Encoded date : UTC 2010-02-22 21:41:31
Writing application : mkvmerge v5.9.0 ('On The Loose') built on Dec 9 2012 15:37:01
Writing library : libebml v1.3.0 + libmatroska v1.4.0
Video
ID : 1
Format : AVC
Format/Info : Advanced Video Codec
Format profile : High@L4.1
Format settings, CABAC : Yes
Format settings, ReFrames : 8 frames
Codec ID : V_MPEG4/ISO/AVC
Duration : 1h 17mn
Bit rate : 1 500 Kbps
Width : 1 024 pixels
Height : 576 pixels
Display aspect ratio : 16:9
Frame rate mode : Constant
Frame rate : 25.000 fps
Color space : YUV
Chroma subsampling : 4:2:0
Bit depth : 8 bits
Scan type : Progressive
Bits/(Pixel*Frame) : 0.102
Stream size : 808 MiB (78%)
Writing library : x264 core 148 r2638 7599210
Encoding settings : cabac=1 / ref=8 / deblock=1:-3:-3 / analyse=0x3:0x133 / me=umh / subme=9 / psy=1 / psy_rd=1.00:0.00 / mixed_ref=1 / me_range=32 / chroma_me=1 / trellis=2 / 8x8dct=1 / cqm=0 / deadzone=21,11 / fast_pskip=1 / chroma_qp_offset=-2 / threads=12 / lookahead_threads=2 / sliced_threads=0 / nr=0 / decimate=1 / interlaced=0 / bluray_compat=0 / constrained_intra=0 / bframes=8 / b_pyramid=2 / b_adapt=2 / b_bias=0 / direct=3 / weightb=1 / open_gop=0 / weightp=2 / keyint=250 / keyint_min=25 / scenecut=40 / intra_refresh=0 / rc_lookahead=50 / rc=2pass / mbtree=1 / bitrate=1500 / ratetol=1.0 / qcomp=0.60 / qpmin=0 / qpmax=69 / qpstep=4 / cplxblur=20.0 / qblur=0.5 / vbv_maxrate=62500 / vbv_bufsize=78125 / nal_hrd=none / filler=0 / ip_ratio=1.40 / aq=1:1.00
Default : Yes
Forced : No
Statistics Tags Issue : mkvmerge v8.5.2 ('Crosses') 32bit 2016-05-14 00:08:57 / mkvmerge v5.9.0 ('On The Loose') built on Dec 9 2012 15:37:01 2010-02-22 21:41:31
FromStats_BitRate : 1498653
FromStats_Duration : 01:17:11.680000000
FromStats_FrameCount : 115792
FromStats_StreamSize : 867660683
Audio
ID : 2
Format : AC-3
Format/Info : Audio Coding 3
Mode extension : CM (complete main)
Format settings, Endianness : Big
Codec ID : A_AC3
Duration : 1h 17mn
Bit rate mode : Constant
Bit rate : 384 Kbps
Channel(s) : 6 channels
Channel positions : Front: L C R, Side: L R, LFE
Sampling rate : 48.0 KHz
Frame rate : 31.250 fps (1536 spf)
Compression mode : Lossy
Stream size : 212 MiB (20%)
Language : Russian
Default : Yes
Forced : No
raw [info]: 1024x576p 1:1 @ 25/1 fps (cfr)
x264 [info]: using SAR=1/1
x264 [info]: using cpu capabilities: MMX2 SSE2Fast SSSE3 SSE4.2 AVX
x264 [info]: profile High, level 4.1
x264 [info]: frame I:842 Avg QP:16.56 size: 51422
x264 [info]: frame P:30736 Avg QP:20.77 size: 14580
x264 [info]: frame B:84214 Avg QP:22.51 size: 4467
x264 [info]: consecutive B-frames: 2.7% 5.4% 6.8% 64.8% 7.0% 8.4% 1.2% 2.7% 0.9%
x264 [info]: mb I I16..4: 15.2% 72.6% 12.2%
x264 [info]: mb P I16..4: 2.8% 11.4% 1.0% P16..4: 37.9% 12.1% 9.4% 0.2% 0.1% skip:25.2%
x264 [info]: mb B I16..4: 0.3% 1.2% 0.1% B16..8: 29.5% 5.8% 1.2% direct: 4.5% skip:57.4% L0:40.4% L1:48.7% BI:10.9%
x264 [info]: 8x8 transform intra:75.0% inter:79.0%
x264 [info]: direct mvs spatial:96.3% temporal:3.7%
x264 [info]: coded y,uvDC,uvAC intra: 68.4% 70.2% 29.0% inter: 15.9% 19.6% 0.9%
x264 [info]: i16 v,h,dc,p: 33% 24% 4% 39%
x264 [info]: i8 v,h,dc,ddl,ddr,vr,hd,vl,hu: 13% 14% 6% 7% 11% 12% 13% 11% 13%
x264 [info]: i4 v,h,dc,ddl,ddr,vr,hd,vl,hu: 14% 15% 4% 7% 12% 13% 13% 9% 12%
x264 [info]: i8c dc,h,v,p: 35% 25% 17% 22%
x264 [info]: Weighted P-Frames: Y:5.1% UV:2.3%
x264 [info]: ref P L0: 52.7% 13.5% 15.7% 5.2% 4.3% 3.2% 3.1% 2.0% 0.2% 0.0%
x264 [info]: ref B L0: 81.6% 9.8% 3.9% 1.9% 1.4% 0.9% 0.5%
x264 [info]: ref B L1: 95.9% 4.1%
x264 [info]: kb/s:1498.65
encoded 115792 frames, 30.32 fps, 1498.65 kb/s



   Похожие торренты   Торрент   Размер 
В этой теме нет новых непрочитанных сообщений. Красная Армия / Красная Машина / Red Army (2014) HDTVRip 720p | P

0 | 0

2.36 ГБ

В этой теме нет новых непрочитанных сообщений. Красная армия / Red Army (2014) BDRip 1080p | A

91 | 25

9.07 ГБ

В этой теме нет новых непрочитанных сообщений. Красная армия / Red Army (2014) HDRip | Сербин

1055 | 81

1.45 ГБ

В этой теме нет новых непрочитанных сообщений. Красная армия / Red Army (2014) BDRip-AVC | Сербин

825 | 126

1.2 ГБ

В этой теме нет новых непрочитанных сообщений. Красная армия / Red Army (2014) BDRip 720p от HDLine | A | Сербин

403 | 27

5.55 ГБ

В этой теме нет новых непрочитанных сообщений. Красная армия / Red Army (2014) Blu-ray Remux 1080p от HDClub | A | Сербин

47 | 9

20.53 ГБ

В этой теме нет новых непрочитанных сообщений. Армия. Российская история ХХ столетия. Хмурое утро: Красная армия (2003) DVDRip от KinoZalSat

5 | 11

894.09 МБ




Вы не можете начинать темы
Вы не можете отвечать на сообщения
Вы не можете редактировать свои сообщения
Вы не можете удалять свои сообщения
Вы не можете добавлять вложения

Перейти:  
Для Мосгорсуда, Роскомнадзора и рекламодателей: mosgorsud-torrent[собачка]yandex.ru
 Вход
ppkBB3cker v.2 © 2008-2014 @ PPK
[ Time : 0.035s | 15 Queries | GZIP : Off ]

Торрент трекер RUTOR.IN, Не можете зайти на rutor.org? Какой новый адрес рутор? Какое зеркало рутор? Не работает rutor.org и зеркала? Тогда наш торрент специально для вас. Rutor.in неофициальное зеркало rutor. В случае если у Вас заблокирован rutor или вдруг Вы не можете на него зайти, то Вы без труда сможете скачать бесплатно и без рекламы последние новинки кино, игр, сериалов и прочего у нас, на Rutor.in. Не нужно использовать прокси, чтобы зайти на рутор, достаточно воспользоваться нашим ресурсом. Все новые фильмы, игры, сериалы, книги и музыка за 2013 и 2014 годы через торрент бесплатно. Скачивайте фильмы в хорошем качестве, игры для пк, xbox, playstation без регистрации. У нас вы найдете новые Зарубежные сериалы и Русские сериалы 2013, 2014, 2015 годов. Оставайтесь с нами, качайте любимые фильмы, игры, сериалы, книги и музыку.