img image001 image001 image001 image001 image001 image001 image001 image001 image001 image001 image001 image001 image001 image001 image001

Planets Sun Sun Sun
Статистика раздачи
Автор: Nickolas3434 | Размер: 2.36 ГБ | Добавлен: 14 май 2016
Раздают: 0    Качают: 0
Скачать торрент
Скачать торрент
Описание торрента

СообщениеДобавлено: 14 май 2016 

Красная Армия / Красная Машина / Red Army


#77
Год выпуска: 2014
Страна: США | Россия | Gabriel Polsky Productions
Жанр: Документальный
Продолжительность: 1:17:11
Перевод: Профессиональный (многоголосый закадровый) | "Первого Канала"
Режиссеры: Гейб Польски / Gabe Polsky

Описание: Фильм о Советском Союзе и самой успешной в истории спорта команде — хоккеистах сборной СССР. Рассказ о превращении из национального героя в политического врага ведётся с точки зрения Вячеслава Фетисова. Это повествование о том, как в спорте отразились социальные и культурные изменения в стране, о взлёте и падении национальной сборной по хоккею.


Автор рипа: lrn
Автор записи: Alexin29
Сэмпл: sendfile

Тип релиза: HDTVRip 720p
Контейнер: MKV
Видео: 1280x720 (16:9), 25,000 fps, H264, ~4000 kbps avg, ~0.174 bit/pixel
Аудио: 48 kHz, AC3 Dolby Digital, 2/0 (L,R) ch, ~192.00 kbps avg

General
Unique ID : 186678899646055420168387240826106737000 (0x8C710C5C2ACD4DBCA2F28C7BA9BEF168)
Complete name : E:uTorrent.TempTempRed.Army.2014.HDTVRip.720p.x264-RUS-lrn.mkv
Format : Matroska
Format version : Version 4 / Version 2
File size : 2.36 GiB
Duration : 1h 17mn
Overall bit rate : 4 384 Kbps
Movie name : Red.Army.2014.HDTVRip.720p.x264-RUS-lrn
Encoded date : UTC 2010-02-22 21:41:31
Writing application : mkvmerge v5.9.0 ('On The Loose') built on Dec 9 2012 15:37:01
Writing library : libebml v1.3.0 + libmatroska v1.4.0
Video
ID : 1
Format : AVC
Format/Info : Advanced Video Codec
Format profile : High@L4.1
Format settings, CABAC : Yes
Format settings, ReFrames : 8 frames
Codec ID : V_MPEG4/ISO/AVC
Duration : 1h 17mn
Bit rate : 4 000 Kbps
Width : 1 280 pixels
Height : 720 pixels
Display aspect ratio : 16:9
Frame rate mode : Constant
Frame rate : 25.000 fps
Color space : YUV
Chroma subsampling : 4:2:0
Bit depth : 8 bits
Scan type : Progressive
Bits/(Pixel*Frame) : 0.174
Stream size : 2.11 GiB (89%)
Writing library : x264 core 148 r2638 7599210
Encoding settings : cabac=1 / ref=8 / deblock=1:-3:-3 / analyse=0x3:0x133 / me=umh / subme=9 / psy=1 / psy_rd=1.00:0.00 / mixed_ref=1 / me_range=32 / chroma_me=1 / trellis=2 / 8x8dct=1 / cqm=0 / deadzone=21,11 / fast_pskip=1 / chroma_qp_offset=-2 / threads=12 / lookahead_threads=2 / sliced_threads=0 / nr=0 / decimate=1 / interlaced=0 / bluray_compat=0 / constrained_intra=0 / bframes=8 / b_pyramid=2 / b_adapt=2 / b_bias=0 / direct=3 / weightb=1 / open_gop=0 / weightp=2 / keyint=250 / keyint_min=25 / scenecut=40 / intra_refresh=0 / rc_lookahead=50 / rc=2pass / mbtree=1 / bitrate=4000 / ratetol=1.0 / qcomp=0.60 / qpmin=0 / qpmax=69 / qpstep=4 / cplxblur=20.0 / qblur=0.5 / vbv_maxrate=62500 / vbv_bufsize=78125 / nal_hrd=none / filler=0 / ip_ratio=1.40 / aq=1:1.00
Default : Yes
Forced : No
Statistics Tags Issue : mkvmerge v8.5.2 ('Crosses') 32bit 2016-05-13 23:04:41 / mkvmerge v5.9.0 ('On The Loose') built on Dec 9 2012 15:37:01 2010-02-22 21:41:31
FromStats_BitRate : 3998516
FromStats_Duration : 01:17:11.680000000
FromStats_FrameCount : 115792
FromStats_StreamSize : 2314980986
Audio
ID : 2
Format : AC-3
Format/Info : Audio Coding 3
Mode extension : CM (complete main)
Format settings, Endianness : Big
Codec ID : A_AC3
Duration : 1h 17mn
Bit rate mode : Constant
Bit rate : 384 Kbps
Channel(s) : 6 channels
Channel positions : Front: L C R, Side: L R, LFE
Sampling rate : 48.0 KHz
Frame rate : 31.250 fps (1536 spf)
Compression mode : Lossy
Stream size : 212 MiB (9%)
Language : Russian
Default : Yes
Forced : No
raw [info]: 1280x720p 1:1 @ 25/1 fps (cfr)
x264 [info]: using SAR=1/1
x264 [info]: using cpu capabilities: MMX2 SSE2Fast SSSE3 SSE4.2 AVX
x264 [info]: profile High, level 4.1
x264 [info]: frame I:822 Avg QP:12.08 size:101831
x264 [info]: frame P:31530 Avg QP:16.61 size: 37536
x264 [info]: frame B:83440 Avg QP:18.35 size: 12557
x264 [info]: consecutive B-frames: 2.9% 5.9% 6.5% 68.6% 5.2% 7.4% 0.8% 1.7% 0.9%
x264 [info]: mb I I16..4: 16.3% 71.2% 12.5%
x264 [info]: mb P I16..4: 2.6% 16.5% 1.5% P16..4: 32.3% 18.6% 10.2% 0.4% 0.1% skip:17.9%
x264 [info]: mb B I16..4: 0.3% 2.1% 0.2% B16..8: 29.3% 9.8% 2.2% direct: 8.5% skip:47.5% L0:39.9% L1:43.7% BI:16.4%
x264 [info]: 8x8 transform intra:79.6% inter:68.0%
x264 [info]: direct mvs spatial:97.7% temporal:2.3%
x264 [info]: coded y,uvDC,uvAC intra: 79.8% 81.3% 53.3% inter: 26.4% 29.7% 4.0%
x264 [info]: i16 v,h,dc,p: 44% 17% 4% 34%
x264 [info]: i8 v,h,dc,ddl,ddr,vr,hd,vl,hu: 14% 16% 7% 7% 10% 11% 12% 11% 13%
x264 [info]: i4 v,h,dc,ddl,ddr,vr,hd,vl,hu: 14% 16% 5% 7% 13% 13% 13% 10% 11%
x264 [info]: i8c dc,h,v,p: 38% 25% 18% 20%
x264 [info]: Weighted P-Frames: Y:4.3% UV:2.0%
x264 [info]: ref P L0: 53.4% 11.9% 15.9% 5.6% 4.5% 3.3% 3.1% 2.1% 0.2% 0.0%
x264 [info]: ref B L0: 81.3% 10.1% 3.8% 1.9% 1.4% 0.9% 0.5%
x264 [info]: ref B L1: 96.2% 3.8%
x264 [info]: kb/s:3998.51
encoded 115792 frames, 16.11 fps, 3998.51 kb/s



   Похожие торренты   Торрент   Размер 
В этой теме нет новых непрочитанных сообщений. Красная Армия / Красная Машина / Red Army (2014) HDTVRip-AVC | P

1 | 0

1.02 ГБ

В этой теме нет новых непрочитанных сообщений. Красная армия / Red Army (2014) BDRip 720p от HDLine | A | Сербин

227 | 12

5.55 ГБ

В этой теме нет новых непрочитанных сообщений. Красная армия / Red Army (2014) BDRip 1080p | A

47 | 11

9.07 ГБ

В этой теме нет новых непрочитанных сообщений. Красная армия / Red Army (2014) BDRip-AVC | Сербин

419 | 37

1.2 ГБ

В этой теме нет новых непрочитанных сообщений. Красная армия / Red Army (2014) HDRip | Сербин

834 | 55

1.45 ГБ

В этой теме нет новых непрочитанных сообщений. Красная армия / Red Army (2014) Blu-ray Remux 1080p от HDClub | A | Сербин

47 | 9

20.53 ГБ

В этой теме нет новых непрочитанных сообщений. Армия. Российская история ХХ столетия. Хмурое утро: Красная армия (2003) DVDRip от KinoZalSat

5 | 11

894.09 МБ




Вы не можете начинать темы
Вы не можете отвечать на сообщения
Вы не можете редактировать свои сообщения
Вы не можете удалять свои сообщения
Вы не можете добавлять вложения

Перейти:  
Для Мосгорсуда, Роскомнадзора и рекламодателей: mosgorsud-torrent[собачка]yandex.ru
 Вход
ppkBB3cker v.2 © 2008-2014 @ PPK
[ Time : 0.041s | 16 Queries | GZIP : Off ]

Торрент трекер RUTOR.IN, Не можете зайти на rutor.org? Какой новый адрес рутор? Какое зеркало рутор? Не работает rutor.org и зеркала? Тогда наш торрент специально для вас. Rutor.in неофициальное зеркало rutor. В случае если у Вас заблокирован rutor или вдруг Вы не можете на него зайти, то Вы без труда сможете скачать бесплатно и без рекламы последние новинки кино, игр, сериалов и прочего у нас, на Rutor.in. Не нужно использовать прокси, чтобы зайти на рутор, достаточно воспользоваться нашим ресурсом. Все новые фильмы, игры, сериалы, книги и музыка за 2013 и 2014 годы через торрент бесплатно. Скачивайте фильмы в хорошем качестве, игры для пк, xbox, playstation без регистрации. У нас вы найдете новые Зарубежные сериалы и Русские сериалы 2013, 2014, 2015 годов. Оставайтесь с нами, качайте любимые фильмы, игры, сериалы, книги и музыку.
cron