img image001 image001 image001 image001 image001 image001 image001 image001 image001 image001 image001 image001 image001 image001 image001

Planets Sun Sun Sun
Статистика раздачи
Автор: Nickolas3434 | Размер: 1.41 ГБ | Добавлен: 16 май 2016
Раздают: 100    Качают: 3
Скачать торрент
Скачать торрент
Описание торрента

СообщениеДобавлено: 16 май 2016 


Информация о фильме
Название: Мосфильм. Фабрика советских грез
Год выхода: 2014
Режиссер: Документальный
О фильме:
В конце 1927 года на Ленинских горах началось строительство не просто киностудии, а огромного города кино, который отныне должен был стать фабрикой, выдающей шедевры "под ключ".
"Мосфильм" был в известном смысле моделью нашего государства и переживал вместе со страной падения и взлеты. Его лучшие картины - это советские грезы, однако, не смотря ни на что, это всегда был "штучный продукт", а не "фабричное изделие".
В своём святом порыве догнать и перегнать Голливуд, киностудия "Мосфильм" действовала с размахом. Двум крошечным фабрикам Ханжонкова и Ермольева, из которых и явился свету будущий "Мосфильм", и не снился такой масштаб. Да что там скромные киноателье, такого не видела сама Европа...
Благодарность: за оказанную помощь с недостающим материалом Bartimeyse.
Запись потока *.ts с наземного цифрового телеканала "Беларусь 3", ремукс в *.mkv программой VideoReDo.
Страна: Российская Федерация
Продолжительность: 00:40:59 + 00:39:36
Перевод: не требует
Файл
Кодек: AVC (H264)
Качество: DVB
Видео: AVC (H264), 720x576 (4:3), 25 fps, 2 205 Kbps
Звук: MP2, 256 kbps, 2 channels, 48 kHz
Сэмпл: http://rusfolder.com/45012304
Код:
General
Unique ID                      : 49804253805356691716038141683667912414 (0x2577F34BDA1D686668E9452B83B946DE)
Complete name                  : D:Новая  земля 2\00001Мосфильм. Фабрика советских грез (2014)Мосфильм. Фабрика советских грез (2014)Мосфильм. Фабрика советских грез_02_(2014).mkv
Format                         : Matroska
Format version                 : Version 2
File size                      : 711 MiB
Duration                       : 39mn 36s
Overall bit rate               : 2 511 Kbps
Writing application            : Lavf52.64.2
Writing library                : Lavf52.64.2
Video
ID                             : 1
Format                         : AVC
Format/Info                    : Advanced Video Codec
Format profile                 : Main@L3.0
Format settings, CABAC         : Yes
Format settings, ReFrames      : 4 frames
Codec ID                       : V_MPEG4/ISO/AVC
Duration                       : 39mn 36s
Bit rate                       : 2 205 Kbps
Width                          : 720 pixels
Height                         : 576 pixels
Display aspect ratio           : 4:3
Original display aspect ratio  : 4:3
Frame rate mode                : Constant
Frame rate                     : 25.000 fps
Standard                       : PAL
Color space                    : YUV
Chroma subsampling             : 4:2:0
Bit depth                      : 8 bits
Scan type                      : MBAFF
Scan order                     : Top Field First
Bits/(Pixel*Frame)             : 0.213
Stream size                    : 625 MiB (88%)
Default                        : Yes
Forced                         : No
Color primaries                : BT.601 PAL
Transfer characteristics       : BT.470 System B, BT.470 System G
Matrix coefficients            : BT.601
Color range                    : Limited
Audio
ID                             : 2
Format                         : MPEG Audio
Format version                 : Version 1
Format profile                 : Layer 2
Codec ID                       : A_MPEG/L2
Codec ID/Hint                  : MP2
Duration                       : 39mn 36s
Bit rate mode                  : Constant
Bit rate                       : 256 Kbps
Channel(s)                     : 2 channels
Sampling rate                  : 48.0 KHz
Compression mode               : Lossy
Stream size                    : 72.5 MiB (10%)
Language                       : English
Default                        : Yes
Forced                         : No
 




   Похожие торренты   Торрент   Размер 
В этой теме нет новых непрочитанных сообщений. Фабрика грёз [01-08 из 08] (2004) DVDRip

3 | 4

4 ГБ

В этой теме нет новых непрочитанных сообщений. Hollywood Tycoon: Фабрика Грез (2004) PC | Лицензия

16 | 3

89.82 МБ

В этой теме нет новых непрочитанных сообщений. Чернокнижник / Колдун / Warlock (1988) HDRip от Scarabey | D | Мосфильм

311 | 68

1.45 ГБ

В этой теме нет новых непрочитанных сообщений. Шаг в мир грез Андреа (2014) PC

62 | 3

712.97 МБ

В этой теме нет новых непрочитанных сообщений. Шаг в мир грез Андреа (2014) PC

199 | 14

713.98 МБ

В этой теме нет новых непрочитанных сообщений. Городские легенды. Мосфильм. Павильон удачи (2011) IPTVRip от Generalfilm

3 | 67

316.67 МБ

В этой теме нет новых непрочитанных сообщений. Фабрика игрушек (2014) PC

659 | 14

137.01 МБ




Вы не можете начинать темы
Вы не можете отвечать на сообщения
Вы не можете редактировать свои сообщения
Вы не можете удалять свои сообщения
Вы не можете добавлять вложения

Перейти:  
Для Мосгорсуда, Роскомнадзора и рекламодателей: mosgorsud-torrent[собачка]yandex.ru
 Вход
ppkBB3cker v.2 © 2008-2014 @ PPK
[ Time : 0.036s | 15 Queries | GZIP : Off ]

Торрент трекер RUTOR.IN, Не можете зайти на rutor.org? Какой новый адрес рутор? Какое зеркало рутор? Не работает rutor.org и зеркала? Тогда наш торрент специально для вас. Rutor.in неофициальное зеркало rutor. В случае если у Вас заблокирован rutor или вдруг Вы не можете на него зайти, то Вы без труда сможете скачать бесплатно и без рекламы последние новинки кино, игр, сериалов и прочего у нас, на Rutor.in. Не нужно использовать прокси, чтобы зайти на рутор, достаточно воспользоваться нашим ресурсом. Все новые фильмы, игры, сериалы, книги и музыка за 2013 и 2014 годы через торрент бесплатно. Скачивайте фильмы в хорошем качестве, игры для пк, xbox, playstation без регистрации. У нас вы найдете новые Зарубежные сериалы и Русские сериалы 2013, 2014, 2015 годов. Оставайтесь с нами, качайте любимые фильмы, игры, сериалы, книги и музыку.
cron