img image001 image001 image001 image001 image001 image001 image001 image001 image001 image001 image001 image001 image001 image001 image001

Planets Sun Sun Sun
Статистика раздачи
Автор: Nickolas3434 | Размер: 2.57 ГБ | Добавлен: 18 май 2016
Раздают: 25    Качают: 3
Скачать торрент
Скачать торрент
Описание торрента

СообщениеДобавлено: 18 май 2016 

Евровидение 2016: Финал / Eurovision 2016: Final


#77
Год выпуска: 2016
Место проведения: «Ericsson Globe» Стокгольм, Швеция.
Канал: Россия | Россия HD
Жанр: Pop
Общая продолжительность: 3:37:19
Ведущие: Монс Сельмерлёв, Швеция Петра Меде
Режиссер: Йон Ула Санн
Комментаторы: Эрнест Мацкявичюс и Дмитрий Губерниев

Описание: Конкурс песни Евровидение 2016 - 61-й конкурс песни «Евровидение», который состоится в Стокгольме, столице Швеции. Страна стала победительницей предыдущего конкурса «Евровидение 2015», прошедшего в Вене (Австрия), с песней «Heroes» в исполнении Монса Сельмерлёва, набравшего 365 баллов. Даты полуфиналов - 10 мая и 12 мая, финал конкурса состоится 14 мая 2016 года. Швеция будет принимать у себя конкурс в шестой раз, стране понадобилось 3 года для того, чтобы повторить успех 2012 года, где победителем стала Лорин.
Конкурс будет проводить шведская национальная телерадиокомпания SVT под руководством Европейского вещательного союза. В конкурсе примут участие 42 страны. Об этом стало известно 26 ноября 2015 года. На конкурс вернулись Болгария, Босния и Герцеговина, Украина и Хорватия. Свое участие продолжает Австралия - страна-дебютант прошлого года. От участия в этом году отказалась Португалия, из-за долгов перед Европейским вещательным союзом отстранена Румыния. Кроме них участие в конкурсе не возобновили ещё четырнадцать стран.

Автор рипа: lrn
Автор записи: HDCLUB
Сэмпл: sendfile

Тип релиза: HDTVRip-AVC
Контейнер: MKV
Видео: 1024x576 (16:9), 25,000 fps, H264, ~1500 kbps avg, ~0.102 bit/pixel
Аудио: 48 kHz, AC3 Dolby Digital, 2/0 (L,R) ch, ~192.00 kbps avg

01 - [Бельгия] - Лаура Тесоро - «What’s the Pressure?»
02 - [Чехия] - Габриэла Гунчикова - «I Stand»
03 - [Нидерланды] - Дауэ Боб - «Slow Down»
04 - [Азербайджан] - Семра - «Miracle»
05 - [Венгрия] - Фредди - «Pioneer»
06 - [Италия] - Франческа Микьелин - «No Degree of Separation»
07 - [Израиль] - Хови Стар - «Made of Stars»
08 - [Болгария] - Поли Генова - «If Love Was a Crime»
09 - [Швеция] - Франс - «If I were Sorry»
10 - [Германия] - Джейми-Ли - «Ghost»
11 - [Франция] - Амир Хаддад - «J’ai cherché»
12 - [Польша] - Михал Шпак - «Color of Your Life»
13 - [Австралия] - Дэми Им - «Sound of Silence»
14 - [Республика Кипр] - Minus One - «Alter Ego»
15 - [Сербия] - Саня Вучич - «Goodbye»
16 - [Литва] - Донни Монтелл - «I’ve Been Waiting for This Night»
17 - [Хорватия] - Нина Кралич - «Lighthouse»
18 - [Россия] - Сергей Лазарев - «You Are the Only One»
19 - [Испания] - Barei - «Say Yay!»
20 - [Латвия] - Юстс - «Heartbeat»
21 - [Украина] - Джамала - «1944»
22 - [Мальта] - Ира Лоско - «Walk on Water»
23 - [Грузия] - Nika Kocharov & Young Georgian Lolitaz - «Midnight Gold»
24 - [Австрия] - Зои - «Loin d’ici»
25 - [Великобритания] - Joe & Jake - «You’re Not Alone»
26 - [Армения] - Ивета Мукучян - «LoveWave»
General
Unique ID : 185603375711946633008993002608923464466 (0x8BA1E8EF9E85C1429121930454AB5312)
Complete name : E:uTorrent.TempTempEurovision.2016.Final.HDTVRip-AVC.x264-RUS-lrn.mkv
Format : Matroska
Format version : Version 4 / Version 2
File size : 2.57 GiB
Duration : 3h 37mn
Overall bit rate : 1 694 Kbps
Movie name : Eurovision.2016.Final.HDTVRip-AVC.x264-RUS-lrn
Encoded date : UTC 2010-02-22 21:41:31
Writing application : mkvmerge v5.9.0 ('On The Loose') built on Dec 9 2012 15:37:01
Writing library : libebml v1.3.0 + libmatroska v1.4.0
Video
ID : 1
Format : AVC
Format/Info : Advanced Video Codec
Format profile : High@L4.1
Format settings, CABAC : Yes
Format settings, ReFrames : 8 frames
Codec ID : V_MPEG4/ISO/AVC
Duration : 3h 37mn
Bit rate : 1 500 Kbps
Width : 1 024 pixels
Height : 576 pixels
Display aspect ratio : 16:9
Frame rate mode : Constant
Frame rate : 25.000 fps
Color space : YUV
Chroma subsampling : 4:2:0
Bit depth : 8 bits
Scan type : Progressive
Bits/(Pixel*Frame) : 0.102
Stream size : 2.23 GiB (87%)
Writing library : x264 core 142 r2479 dd79a61
Encoding settings : cabac=1 / ref=8 / deblock=1:-3:-3 / analyse=0x3:0x133 / me=umh / subme=9 / psy=1 / psy_rd=1.00:0.00 / mixed_ref=1 / me_range=32 / chroma_me=1 / trellis=2 / 8x8dct=1 / cqm=0 / deadzone=21,11 / fast_pskip=1 / chroma_qp_offset=-2 / threads=12 / lookahead_threads=2 / sliced_threads=0 / nr=0 / decimate=1 / interlaced=0 / bluray_compat=0 / constrained_intra=0 / bframes=8 / b_pyramid=2 / b_adapt=2 / b_bias=0 / direct=3 / weightb=1 / open_gop=0 / weightp=2 / keyint=250 / keyint_min=25 / scenecut=40 / intra_refresh=0 / rc_lookahead=50 / rc=2pass / mbtree=1 / bitrate=1500 / ratetol=1.0 / qcomp=0.60 / qpmin=0 / qpmax=69 / qpstep=4 / cplxblur=20.0 / qblur=0.5 / vbv_maxrate=62500 / vbv_bufsize=78125 / nal_hrd=none / filler=0 / ip_ratio=1.40 / aq=1:1.00
Default : Yes
Forced : No
Color range : Limited
Color primaries : BT.709
Transfer characteristics : BT.709
Matrix coefficients : BT.709
Audio
ID : 2
Format : AC-3
Format/Info : Audio Coding 3
Mode extension : CM (complete main)
Format settings, Endianness : Big
Codec ID : A_AC3
Duration : 3h 37mn
Bit rate mode : Constant
Bit rate : 192 Kbps
Channel(s) : 2 channels
Channel positions : Front: L R
Sampling rate : 48.0 KHz
Frame rate : 31.250 fps (1536 spf)
Compression mode : Lossy
Delay relative to video : -5ms
Stream size : 298 MiB (11%)
Language : Russian
Default : Yes
Forced : No
raw [info]: 1024x576p 1:1 @ 25/1 fps (cfr)
x264 [info]: using SAR=1/1
x264 [info]: using cpu capabilities: MMX2 SSE2Fast SSSE3 SSE4.2 AVX
x264 [info]: profile High, level 4.1
x264 [info]: frame I:2142 Avg QP:22.92 size: 43736
x264 [info]: frame P:92575 Avg QP:26.07 size: 13834
x264 [info]: frame B:231269 Avg QP:29.35 size: 4629
x264 [info]: consecutive B-frames: 4.6% 5.0% 15.0% 45.9% 19.1% 9.5% 0.7% 0.2% 0.1%
x264 [info]: mb I I16..4: 24.0% 55.3% 20.7%
x264 [info]: mb P I16..4: 10.1% 13.7% 2.0% P16..4: 34.9% 9.6% 7.2% 0.3% 0.1% skip:22.0%
x264 [info]: mb B I16..4: 1.0% 1.5% 0.2% B16..8: 32.8% 5.6% 1.5% direct: 4.3% skip:53.0% L0:39.3% L1:52.1% BI: 8.6%
x264 [info]: 8x8 transform intra:53.5% inter:63.1%
x264 [info]: direct mvs spatial:87.7% temporal:12.3%
x264 [info]: coded y,uvDC,uvAC intra: 40.2% 68.2% 28.5% inter: 11.7% 18.1% 2.1%
x264 [info]: i16 v,h,dc,p: 32% 24% 11% 33%
x264 [info]: i8 v,h,dc,ddl,ddr,vr,hd,vl,hu: 12% 9% 11% 8% 12% 12% 12% 11% 12%
x264 [info]: i4 v,h,dc,ddl,ddr,vr,hd,vl,hu: 12% 10% 8% 8% 13% 12% 13% 10% 15%
x264 [info]: i8c dc,h,v,p: 34% 27% 19% 20%
x264 [info]: Weighted P-Frames: Y:3.7% UV:2.7%
x264 [info]: ref P L0: 54.9% 13.7% 15.6% 4.7% 3.7% 2.7% 2.6% 1.7% 0.4% 0.0%
x264 [info]: ref B L0: 86.3% 7.4% 2.9% 1.4% 1.0% 0.7% 0.4%
x264 [info]: ref B L1: 96.0% 4.0%
x264 [info]: kb/s:1500.00
encoded 176299 frames, 23.13 fps, 1500.00 kb/s



   Похожие торренты   Торрент   Размер 
В этой теме нет новых непрочитанных сообщений. Евровидение 2016. Финал: Отдельные выступления / Eurovision 2016: Final (2016) HDTVRip 1080p от HDLine

2 | 2

11.87 ГБ

В этой теме нет новых непрочитанных сообщений. Евровидение 2016. Финал: Отдельные выступления / Eurovision 2016: Final (2016) HDTVRip 1080p от HDLine

0 | 2

11.87 ГБ

В этой теме нет новых непрочитанных сообщений. Евровидение 2016: Финал / Eurovision 2016: Final (2016) HDTVRip 720p

63 | 1

1.18 ГБ

В этой теме нет новых непрочитанных сообщений. Евровидение 2016: Финал / Eurovision 2016: Final (2016) HDTVRip | КПК от ImperiaFilm

4 | 0

297.36 МБ

В этой теме нет новых непрочитанных сообщений. Евровидение 2016. 1-й Полуфинал / Eurovision 2016: First Semi-Final (2016) HDTVRip-AVC | Россия HD

0 | 0

1.4 ГБ

В этой теме нет новых непрочитанных сообщений. Евровидение 2016. 2-й Полуфинал / Eurovision 2016: Second Semi-Final (2016) HDTVRip-AVC | Россия HD

33 | 0

1.39 ГБ

В этой теме нет новых непрочитанных сообщений. Евровидение 2016. 1-2-й полуфинал + Финал / Eurovision Song Contest 2016 (2016) HDTVRip 720p от HDLine

35 | 112

19.36 ГБ




Вы не можете начинать темы
Вы не можете отвечать на сообщения
Вы не можете редактировать свои сообщения
Вы не можете удалять свои сообщения
Вы не можете добавлять вложения

Перейти:  
Для Мосгорсуда, Роскомнадзора и рекламодателей: mosgorsud-torrent[собачка]yandex.ru
 Вход
ppkBB3cker v.2 © 2008-2014 @ PPK
[ Time : 0.018s | 15 Queries | GZIP : On ]

Торрент трекер RUTOR.IN, Не можете зайти на rutor.org? Какой новый адрес рутор? Какое зеркало рутор? Не работает rutor.org и зеркала? Тогда наш торрент специально для вас. Rutor.in неофициальное зеркало rutor. В случае если у Вас заблокирован rutor или вдруг Вы не можете на него зайти, то Вы без труда сможете скачать бесплатно и без рекламы последние новинки кино, игр, сериалов и прочего у нас, на Rutor.in. Не нужно использовать прокси, чтобы зайти на рутор, достаточно воспользоваться нашим ресурсом. Все новые фильмы, игры, сериалы, книги и музыка за 2013 и 2014 годы через торрент бесплатно. Скачивайте фильмы в хорошем качестве, игры для пк, xbox, playstation без регистрации. У нас вы найдете новые Зарубежные сериалы и Русские сериалы 2013, 2014, 2015 годов. Оставайтесь с нами, качайте любимые фильмы, игры, сериалы, книги и музыку.