img image001 image001 image001 image001 image001 image001 image001 image001 image001 image001 image001 image001 image001 image001 image001

Planets Sun Sun Sun
Статистика раздачи
Автор: Nickolas3434 | Размер: 372.71 МБ | Добавлен: 20 май 2016
Раздают: 1    Качают: 1
Скачать торрент
Скачать торрент
Описание торрента

СообщениеДобавлено: 20 май 2016 

Страна: Россия
Производство: Телеканал «Россия»
Жанр: авторский
Год выпуска: 2016
Продолжительность: 00:36:07
Перевод: Не требуется
Cубтитры: нет
Оригинальная аудиодорожка: русский
Режиссер: Евгений Поддубный
В создании фильма участвовали:
Евгений Поддубный...
Описание:
Хроника освобождения Пальмиры от ИГИЛ. Почему хранитель античных реликвий не выдал террористам тайны древних памятников и каким было последнее желание Халеда Асаада перед изуверской казнью? Как удалось сберечь при наступлении все, что не успели разрушить боевики? Уникальные кадры из эпицентра военной операции. Пальмира, фильм Евгения Поддубного.





Источник: DVB
Качество видео: SATRip
Формат видео: AVI
Видео: 720x432 (5:3), 25 fps, XviD ~ 1241 kbps avg, 0.160 bit/pixel
Аудио: 48 kHz, Dolby Digital AC3 2.0, 192 kbps
Раздача от:
Общее
Полное имя : Palmira.2016.SATRip_[New-team]_by_AVP_Studio.avi
Формат : AVI
Формат/Информация : Audio Video Interleave
Размер файла : 373 Мбайт
Продолжительность : 36 м.
Общий поток : 1443 Кбит/сек
Программа кодирования : VirtualDubMod 1.5.10.3 | www.virtualdub-fr.org || (build 2550/release)
Библиотека кодирования : VirtualDubMod build 2550/release
Видео
Идентификатор : 0
Формат : MPEG-4 Visual
Профиль формата : Advanced Simple@L5
Параметр BVOP формата : 1
Параметр QPel формата : Нет
Параметр GMC формата : Без точки перехода
Параметр матрицы формата : Выборочная
Идентификатор кодека : XVID
Идентификатор кодека/Подсказка : XviD
Продолжительность : 36 м.
Битрейт : 1241 Кбит/сек
Ширина : 720 пикселей
Высота : 432 пикселя
Соотношение сторон : 5:3
Частота кадров : 25,000 кадров/сек
Цветовое пространство : YUV
Субдискретизация насыщенности : 4:2:0
Битовая глубина : 8 бит
Тип развёртки : Прогрессивная
Метод сжатия : С потерями
Бит/(Пиксели*Кадры) : 0.160
Размер потока : 321 Мбайт (86%)
Библиотека кодирования : XviD 1.2.1 (UTC 2008-12-04)
Аудио
Идентификатор : 1
Формат : AC-3
Формат/Информация : Audio Coding 3
Расширение режима : CM (complete main)
Параметр Endianness формата : Big
Идентификатор кодека : 2000
Продолжительность : 36 м.
Вид битрейта : Постоянный
Битрейт : 192 Кбит/сек
Каналы : 2 канала
Расположение каналов : Front: L R
Частота : 48,0 КГц
Частота кадров : 31,250 кадров/сек (1536 spf)
Метод сжатия : С потерями
Размер потока : 49,6 Мбайт (13%)
Выравнивание : Разделение по промежуткам
Продолжительность промежутка : 40 мс. (1,00 видеокадр)
Время предзагрузки промежутка : 500 мс





   Похожие торренты   Торрент   Размер 
В этой теме нет новых непрочитанных сообщений. Пальмира (2016) SATRip-AVC от New-Team

20 | 1

371.9 МБ

В этой теме нет новых непрочитанных сообщений. Эфект Браудера (2016) SATRip-AVC от New-Team

11 | 0

337.82 МБ

В этой теме нет новых непрочитанных сообщений. Эфект Браудера (2016) SATRip от New-Team

2 | 1

302.64 МБ

В этой теме нет новых непрочитанных сообщений. Сердце Донбасса (2016) SATRip от New-Team

121 | 3

372.2 МБ

В этой теме нет новых непрочитанных сообщений. Сердце Донбасса (2016) SATRip от New-Team

31 | 4

372.52 МБ

В этой теме нет новых непрочитанных сообщений. Побег из черного Халифата (2016) SATRip от New-Team

24 | 1

371.66 МБ

В этой теме нет новых непрочитанных сообщений. Побег из черного Халифата (2016) SATRip-AVC от New-Team

17 | 7

372.38 МБ




Вы не можете начинать темы
Вы не можете отвечать на сообщения
Вы не можете редактировать свои сообщения
Вы не можете удалять свои сообщения
Вы не можете добавлять вложения

Перейти:  
Для Мосгорсуда, Роскомнадзора и рекламодателей: mosgorsud-torrent[собачка]yandex.ru
 Вход
ppkBB3cker v.2 © 2008-2014 @ PPK
[ Time : 0.019s | 15 Queries | GZIP : Off ]

Торрент трекер RUTOR.IN, Не можете зайти на rutor.org? Какой новый адрес рутор? Какое зеркало рутор? Не работает rutor.org и зеркала? Тогда наш торрент специально для вас. Rutor.in неофициальное зеркало rutor. В случае если у Вас заблокирован rutor или вдруг Вы не можете на него зайти, то Вы без труда сможете скачать бесплатно и без рекламы последние новинки кино, игр, сериалов и прочего у нас, на Rutor.in. Не нужно использовать прокси, чтобы зайти на рутор, достаточно воспользоваться нашим ресурсом. Все новые фильмы, игры, сериалы, книги и музыка за 2013 и 2014 годы через торрент бесплатно. Скачивайте фильмы в хорошем качестве, игры для пк, xbox, playstation без регистрации. У нас вы найдете новые Зарубежные сериалы и Русские сериалы 2013, 2014, 2015 годов. Оставайтесь с нами, качайте любимые фильмы, игры, сериалы, книги и музыку.