img image001 image001 image001 image001 image001 image001 image001 image001 image001 image001 image001 image001 image001 image001 image001

Planets Sun Sun Sun
Статистика раздачи
Автор: Nickolas3434 | Размер: 6.09 ГБ | Добавлен: 27 май 2016
Раздают: 39    Качают: 7
Скачать торрент
Скачать торрент
Описание торрента

СообщениеДобавлено: 27 май 2016 


Гамлет / Hamlet
Страна: Великобритания Япония США
Производство: Royal Shakespeare Company, NHK Enterprises, Illuminations, BBC Wales, WNET
Год выпуска: 2009
Жанр: телеспектакль, драма
Продолжительность: 03:02:32
Режиссер: Грегори Доран
Автор сценария: Уильям Шекспир
Продюсеры: Себ Грант, Джон Уайвер, Дэвид Хорн
В ролях: Дэвид Теннант, Патрик Стюарт, Пенни Дауни, Оливер Форд Дейвис, Мэрайя Гэйл, Эдвард Беннетт, Питер Де Джерси, Сэм Александр
Описание: Никаких сокращений и утрирований, все монологи-диалоги воспроизведены полностью в соответствии с оригинальным текстом на языке оригинала. И пусть главные герои ходят в современной одежде, дух классического произведения воссоздан безупречно, тонко и изящно...

Перевод: отсутствует | субтитры
Субтитры: русские, английские (full + SDH)

Качество: BDRip 720p
Формат: МКV
Видео кодек: AVC
Аудио кодек: DTS
Видео: 1280x720 (16:9), 29.970 fps, MPEG-4 AVC ~3 175 kbps avg, 0.115 bit/pixel
Аудио: 48 kHz, Digital Theater Systems, 2/0 (L,R) ch, ~1510 kbps avg
Формат субтитров: UTF-8 Plain Text
Дата премьеры (мир): 26 декабря 2009
General
Уникальный идентификатор : 199405838570526722610151283101545816925 (0x96042AE5233A72638BEFF83D81B0635D)
Полное имя : Hamlet.2009.720p.BluRay.x264.DTS-HDWinG.mkv
Формат : Matroska
Версия формата : Version 2
Размер файла : 6,09 Гбайт
Продолжительность : 3 ч. 2 м.
Общий поток : 4780 Кбит/сек
Название фильма : Hamlet 2009
Дата кодирования : UTC 2013-07-29 15:01:05
Программа кодирования : mkvmerge v6.1.0 ('Old Devil') built on Mar 2 2013 14:32:37
Библиотека кодирования : libebml v1.3.0 + libmatroska v1.4.0
Attachment : Yes
Видео
Идентификатор : 1
Формат : AVC
Формат/Информация : Advanced Video Codec
Профиль формата : High@L4.1
Параметр CABAC формата : Да
Параметр ReFrames формата : 9 кадров
Идентификатор кодека : V_MPEG4/ISO/AVC
Продолжительность : 3 ч. 2 м.
Битрейт : 3175 Кбит/сек
Ширина : 1280 пикселей
Высота : 720 пикселей
Соотношение сторон : 16:9
Режим частоты кадров : Постоянный
Частота кадров : 29,970 кадров/сек
Цветовое пространство : YUV
Субдискретизация насыщенности : 4:2:0
Битовая глубина : 8 бит
Тип развёртки : Прогрессивная
Бит/(Пиксели*Кадры) : 0.115
Размер потока : 4,05 Гбайт (66%)
Библиотека кодирования : x264 core 132 r2309 3b1f1f7
Настройки программы : cabac=1 / ref=9 / deblock=1:-3:-3 / analyse=0x3:0x133 / me=umh / subme=10 / psy=1 / psy_rd=1.00:0.00 / mixed_ref=1 / me_range=48 / chroma_me=1 / trellis=2 / 8x8dct=1 / cqm=0 / deadzone=21,11 / fast_pskip=0 / chroma_qp_offset=-2 / threads=12 / lookahead_threads=1 / sliced_threads=0 / nr=0 / decimate=0 / interlaced=0 / bluray_compat=0 / constrained_intra=0 / bframes=8 / b_pyramid=2 / b_adapt=1 / b_bias=0 / direct=3 / weightb=1 / open_gop=0 / weightp=2 / keyint=360 / keyint_min=2 / scenecut=40 / intra_refresh=0 / rc_lookahead=60 / rc=crf / mbtree=1 / crf=17.0 / qcomp=0.70 / qpmin=0 / qpmax=69 / qpstep=4 / vbv_maxrate=50000 / vbv_bufsize=30000 / crf_max=0.0 / nal_hrd=none / ip_ratio=1.10 / aq=1:0.80
Язык : English
Default : Да
Forced : Нет
Аудио
Идентификатор : 2
Формат : DTS
Формат/Информация : Digital Theater Systems
Режим : 16
Параметр Endianness формата : Big
Идентификатор кодека : A_DTS
Продолжительность : 3 ч. 2 м.
Вид битрейта : Постоянный
Битрейт : 1510 Кбит/сек
Каналы : 2 канала
Расположение каналов : Front: L R
Частота : 48,0 КГц
Битовая глубина : 24 бит
Метод сжатия : С потерями
Размер потока : 1,92 Гбайт (32%)
Заголовок : Original
Язык : English
Default : Да
Forced : Нет
Текст #1
Идентификатор : 3
Формат : UTF-8
Идентификатор кодека : S_TEXT/UTF8
Идентификатор кодека/Информация : UTF-8 Plain Text
Заголовок : yuliasha
Язык : Russian
Default : Да
Forced : Нет
Текст #2
Идентификатор : 4
Формат : UTF-8
Идентификатор кодека : S_TEXT/UTF8
Идентификатор кодека/Информация : UTF-8 Plain Text
Заголовок : Full
Язык : English
Default : Нет
Forced : Нет
Текст #3
Идентификатор : 5
Формат : UTF-8
Идентификатор кодека : S_TEXT/UTF8
Идентификатор кодека/Информация : UTF-8 Plain Text
Заголовок : SDH
Язык : English
Default : Нет
Forced : Нет
Меню
00:00:00.000 : en:00:00:00.000
00:06:46.840 : en:00:06:46.840
00:16:52.245 : en:00:16:52.245
00:20:40.372 : en:00:20:40.372
00:28:12.824 : en:00:28:12.824
00:37:40.358 : en:00:37:40.358
00:49:00.437 : en:00:49:00.437
00:57:39.222 : en:00:57:39.222
01:08:06.182 : en:01:08:06.182
01:16:54.810 : en:01:16:54.810
01:26:22.411 : en:01:26:22.411
01:28:17.592 : en:01:28:17.592
01:40:44.839 : en:01:40:44.839
01:53:52.225 : en:01:53:52.225
02:05:56.716 : en:02:05:56.716
02:15:01.994 : en:02:15:01.994
02:27:04.382 : en:02:27:04.382
02:34:46.944 : en:02:34:46.944
02:41:37.688 : en:02:41:37.688
02:52:18.828 : en:02:52:18.828




   Похожие торренты   Торрент   Размер 
В этой теме нет новых непрочитанных сообщений. Гамлет / Hamlet (1996) BDRip 720p

1 | 2

11.58 ГБ

В этой теме нет новых непрочитанных сообщений. Гамлет / Hamlet (2009) DVDRip | Sub

9 | 2

2.49 ГБ

В этой теме нет новых непрочитанных сообщений. Гамлет / Hamlet (1996) BDRip-AVC | P2

2 | 2

4.17 ГБ

В этой теме нет новых непрочитанных сообщений. Гамлет / Hamlet (1996) BDRip

2 | 2

4.35 ГБ

В этой теме нет новых непрочитанных сообщений. Гамлет / Hamlet (1990) BDRip-AVC от NNMClub | P, A

41 | 0

2.69 ГБ

В этой теме нет новых непрочитанных сообщений. Гамлет / Hamlet (1948) BDRip от HQCLUB

57 | 26

2.9 ГБ

В этой теме нет новых непрочитанных сообщений. Гамлет / Hamlet (1996) BDRip от HQCLUB

57 | 18

4.36 ГБ




Вы не можете начинать темы
Вы не можете отвечать на сообщения
Вы не можете редактировать свои сообщения
Вы не можете удалять свои сообщения
Вы не можете добавлять вложения

Перейти:  
Для Мосгорсуда, Роскомнадзора и рекламодателей: mosgorsud-torrent[собачка]yandex.ru
 Вход
ppkBB3cker v.2 © 2008-2014 @ PPK
[ Time : 0.043s | 15 Queries | GZIP : Off ]

cron