img image001 image001 image001 image001 image001 image001 image001 image001 image001 image001 image001 image001 image001 image001 image001

Planets Sun Sun Sun
Статистика раздачи
Автор: Nickolas3434 | Размер: 10.72 ГБ | Добавлен: 01 июн 2016
Раздают: 16    Качают: 7
Скачать торрент
Скачать торрент
Описание торрента

СообщениеДобавлено: 01 июн 2016 


Информация о фильме
Название: Отчаянные дегустаторы отправляются...
Оригинальное название: The Supersizers Go...
Год выхода: 2007 – 2009
Жанр: История, Кулинария, Юмор
Режиссер: Tom Coveney, Нил Фергюсон, Джордж Пальеро
В ролях: Джайлз Корен, Сью Перкинс, Рой Мэрсден, Allegra McEvedy, Микаель Уайсс, Sophie Grigson, Rosemary Shrager, Мэри Берри, Валентина Харрис, Tim Armstrong
О фильме:
Писатель, ресторанный критик Джайлз Корен вместе с известной британской комедийной актрисой, писательницей и радиоведущей Сью Перкинс «отправляются» в прошлое, чтобы жить и питаться так, как это делали в Британии в различные исторические эпохи. Их одевают в костюмы соответствующего исторического периода, направляют к доктору и затем отвозят в дом, декорированный в стиле нужной эпохи. В том же духе их там кормят, нередко приводя героев в состояние шока. В конце каждого испытания доктора приходят к удивительным выводам…

Страна: Великобритания
Студия: BBC Television Centre
Продолжительность: ~00:59:00 серия
Перевод: Профессиональный многоголосый [SDI Media]
Файл
Кодек: XviD
Качество: IPTVRip
Видео: 704x400, 1 798 Kbps, 25.000 fps
Звук: AC-3, 2 channels, 192 Kbps
Семпл

General
Complete name : /home/roma/Відео/Отчаянные дегустаторы отправляются... (The Supersizers Go...)/The Supersizers Go/s01e06_Regency.avi
Format : AVI
Format/Info : Audio Video Interleave
File size : 845 MiB
Duration : 59mn 10s
Overall bit rate : 1 997 Kbps
Writing application : TMPGEnc Video Mastering Works 5 Version. 5.0.6.38
Writing library : TMPGEnc Video Mastering Works 5 Version. 5.0.6.38
Video
ID : 0
Format : MPEG-4 Visual
Format profile : Advanced Simple@L5
Format settings, BVOP : 2
Format settings, QPel : No
Format settings, GMC : No warppoints
Format settings, Matrix : Default (H.263)
Muxing mode : Packed bitstream
Codec ID : XVID
Codec ID/Hint : XviD
Duration : 59mn 10s
Bit rate : 1 798 Kbps
Width : 704 pixels
Height : 400 pixels
Display aspect ratio : 16:9
Frame rate : 25.000 fps
Color space : YUV
Chroma subsampling : 4:2:0
Bit depth : 8 bits
Scan type : Progressive
Compression mode : Lossy
Bits/(Pixel*Frame) : 0.255
Stream size : 761 MiB (90%)
Writing library : XviD 73
Audio
ID : 1
Format : AC-3
Format/Info : Audio Coding 3
Mode extension : CM (complete main)
Format settings, Endianness : Big
Codec ID : 2000
Duration : 59mn 10s
Bit rate mode : Constant
Bit rate : 192 Kbps
Channel(s) : 2 channels
Channel positions : Front: L R
Sampling rate : 48.0 KHz
Frame rate : 31.250 fps (1536 spf)
Compression mode : Lossy
Stream size : 81.3 MiB (10%)
Alignment : Aligned on interleaves
Interleave, duration : 240 ms (6.00 video frames)
Interleave, preload duration : 224 ms



   Похожие торренты   Торрент   Размер 
В этой теме нет новых непрочитанных сообщений. Отчаянные Домохозяйки / Desperate Housewives [S03] (2006-2007) HDTVRip от ТК Домашний

57 | 28

9.67 ГБ

В этой теме нет новых непрочитанных сообщений. Отчаянные домохозяйки / Desperate Housewives [S01-04] (2004-2007) HDTVRip | дубляж СТС

60 | 133

30.92 ГБ

В этой теме нет новых непрочитанных сообщений. Поезд на Дарджилинг. Отчаянные путешественники / The Darjeeling Limited (2007) BDRip-AVC

303 | 75

1.46 ГБ

В этой теме нет новых непрочитанных сообщений. Поезд на Дарджилинг. Отчаянные путешественники / The Darjeeling Limited (2007) HDRip от Scarabey | D

164 | 15

1.45 ГБ

В этой теме нет новых непрочитанных сообщений. Поезд на Дарджилинг. Отчаянные путешественники / The Darjeeling Limited (2007) BDRip-AVC от NovaLan

40 | 2

1.74 ГБ

В этой теме нет новых непрочитанных сообщений. Отчаянные Бойцы Бакуган / Bakugan Battle Brawlers [01х01-04] (2007) DVDRip

10 | 6

937.5 МБ

В этой теме нет новых непрочитанных сообщений. Поезд на Дарджилинг. Отчаянные путешественники / The Darjeeling Limited (2007) HDRip от Scarabey | D | R5

55 | 10

744.72 МБ




Вы не можете начинать темы
Вы не можете отвечать на сообщения
Вы не можете редактировать свои сообщения
Вы не можете удалять свои сообщения
Вы не можете добавлять вложения

Перейти:  
Для Мосгорсуда, Роскомнадзора и рекламодателей: mosgorsud-torrent[собачка]yandex.ru
 Вход
ppkBB3cker v.2 © 2008-2014 @ PPK
[ Time : 1.252s | 14 Queries | GZIP : Off ]

Торрент трекер RUTOR.IN, Не можете зайти на rutor.org? Какой новый адрес рутор? Какое зеркало рутор? Не работает rutor.org и зеркала? Тогда наш торрент специально для вас. Rutor.in неофициальное зеркало rutor. В случае если у Вас заблокирован rutor или вдруг Вы не можете на него зайти, то Вы без труда сможете скачать бесплатно и без рекламы последние новинки кино, игр, сериалов и прочего у нас, на Rutor.in. Не нужно использовать прокси, чтобы зайти на рутор, достаточно воспользоваться нашим ресурсом. Все новые фильмы, игры, сериалы, книги и музыка за 2013 и 2014 годы через торрент бесплатно. Скачивайте фильмы в хорошем качестве, игры для пк, xbox, playstation без регистрации. У нас вы найдете новые Зарубежные сериалы и Русские сериалы 2013, 2014, 2015 годов. Оставайтесь с нами, качайте любимые фильмы, игры, сериалы, книги и музыку.