img image001 image001 image001 image001 image001 image001 image001 image001 image001 image001 image001 image001 image001 image001 image001

Planets Sun Sun Sun
Статистика раздачи
Автор: Nickolas3434 | Размер: 473.73 МБ | Добавлен: 09 июн 2016
Раздают: 5    Качают: 0
Скачать торрент
Скачать торрент
Описание торрента

СообщениеДобавлено: 09 июн 2016 

Страна: Россия
Производство: Телеканал Russia Today
Жанр: авторский
Год выпуска: 2016
Продолжительность: 00:25:32
Перевод: Не требуется
Cубтитры: нет
Оригинальная аудиодорожка: русский
Режиссер: авторы из соображений безопасности не называют своих имен.
В создании фильма участвовали:
авторы из соображений безопасности не называют своих имен...
Описание:
Путь террориста, почему Турция не закрывает проблемный участок границы с Сирией. Секретные материалы ИГИЛ, что скрывают документы, брошенные боевиками в освобожденном Эш-Шадади. В промышленных масштабах, о преступном сотрудничестве Анкары с террористами здесь знают даже дети. Прямые доказательства и уникальные свидетельства гигантского бизнеса Исламского государства и Турции. Во имя прибыли, фильм, авторы которого из соображений безопасности не называют своих имен.





Источник: HDTVRip 1080i
Качество видео: HDTVRip-AVC
Формат видео: MKV
Видео: 1024x576 (16:9), 25 fps, H264 ~ 2400 kbps avg, 0.163 bit/pixel
Аудио: 48 kHz, Dolby Digital AC3 2.0, 192 kbps
Раздача от:
Общее
Полное имя : Vo.imya.pribyli.2016.HDTVRip-AVC_[New-team]_by_AVP_Studio.mkv
Формат : Matroska
Версия формата : Version 2
Размер файла : 474 Мбайт
Продолжительность : 25 м.
Общий поток : 2594 Кбит/сек
Дата кодирования : UTC 2016-06-08 08:42:25
Программа кодирования : mkvmerge v6.1.0 ('Old Devil') built on Mar 4 2013 09:10:42
Библиотека кодирования : libebml v1.3.0 + libmatroska v1.4.0
Видео
Идентификатор : 1
Формат : AVC
Формат/Информация : Advanced Video Codec
Профиль формата : High@L4.1
Параметр CABAC формата : Да
Параметр ReFrames формата : 10 кадров
Идентификатор кодека : V_MPEG4/ISO/AVC
Продолжительность : 25 м.
Битрейт : 2400 Кбит/сек
Ширина : 1024 пикселя
Высота : 576 пикселей
Соотношение сторон : 16:9
Режим частоты кадров : Постоянный
Частота кадров : 25,000 кадров/сек
Цветовое пространство : YUV
Субдискретизация насыщенности : 4:2:0
Битовая глубина : 8 бит
Тип развёртки : Прогрессивная
Бит/(Пиксели*Кадры) : 0.163
Размер потока : 429 Мбайт (91%)
Библиотека кодирования : x264 core 148 r2597 e86f3a1
Настройки программы : cabac=1 / ref=10 / deblock=1:-3:-2 / analyse=0x3:0x113 / me=umh / subme=10 / psy=1 / psy_rd=1.00:0.00 / mixed_ref=1 / me_range=32 / chroma_me=1 / trellis=2 / 8x8dct=1 / cqm=0 / deadzone=21,11 / fast_pskip=1 / chroma_qp_offset=-2 / threads=6 / lookahead_threads=1 / sliced_threads=0 / nr=0 / decimate=0 / interlaced=0 / bluray_compat=0 / constrained_intra=0 / bframes=8 / b_pyramid=2 / b_adapt=2 / b_bias=0 / direct=3 / weightb=1 / open_gop=0 / weightp=2 / keyint=250 / keyint_min=25 / scenecut=40 / intra_refresh=0 / rc_lookahead=40 / rc=2pass / mbtree=1 / bitrate=2400 / ratetol=1.0 / qcomp=0.60 / qpmin=0 / qpmax=69 / qpstep=4 / cplxblur=20.0 / qblur=0.5 / ip_ratio=1.40 / aq=1:1.00
Default : Да
Forced : Нет
Аудио
Идентификатор : 2
Формат : AC-3
Формат/Информация : Audio Coding 3
Расширение режима : CM (complete main)
Параметр Endianness формата : Big
Идентификатор кодека : A_AC3
Продолжительность : 25 м.
Вид битрейта : Постоянный
Битрейт : 192 Кбит/сек
Каналы : 2 канала
Расположение каналов : Front: L R
Частота : 48,0 КГц
Частота кадров : 31,250 кадров/сек (1536 spf)
Метод сжатия : С потерями
Размер потока : 35,1 Мбайт (7%)
Default : Да
Forced : Нет





   Похожие торренты   Торрент   Размер 
В этой теме нет новых непрочитанных сообщений. Во имя прибыли (2016) HDTVRip от New-Team

0 | 0

372.49 МБ

В этой теме нет новых непрочитанных сообщений. Во имя прибыли (2016) WEB-DL 720p

4 | 0

269.39 МБ

В этой теме нет новых непрочитанных сообщений. Discovery. Дорога к прибыли / Highway to Sell [S01] (2014) HDTVRip от GeneralFilm | P1

47 | 16

3.15 ГБ

В этой теме нет новых непрочитанных сообщений. Discovery. Дорога к прибыли / Highway to Sell [01x01-02 из 06] (2014) HDTVRip от GeneralFilm | P1

10 | 8

1.05 ГБ

В этой теме нет новых непрочитанных сообщений. Discovery. Дорога к прибыли / Highway to Sell [01x01 из 06] (2014) HDTVRip от GeneralFilm | P1

14 | 4

535.47 МБ

В этой теме нет новых непрочитанных сообщений. Discovery. Дорога к прибыли / Highway to Sell [01x01-04 из 06] (2014) HDTVRip от GeneralFilm | P1

27 | 4

2.1 ГБ

В этой теме нет новых непрочитанных сообщений. Discovery. Дорога к прибыли / Highway to Sell [01x01-03 из 06] (2014) HDTVRip от GeneralFilm | P1

14 | 2

1.57 ГБ




Вы не можете начинать темы
Вы не можете отвечать на сообщения
Вы не можете редактировать свои сообщения
Вы не можете удалять свои сообщения
Вы не можете добавлять вложения

Перейти:  
Для Мосгорсуда, Роскомнадзора и рекламодателей: mosgorsud-torrent[собачка]yandex.ru
 Вход
ppkBB3cker v.2 © 2008-2014 @ PPK
[ Time : 0.021s | 15 Queries | GZIP : Off ]

Торрент трекер RUTOR.IN, Не можете зайти на rutor.org? Какой новый адрес рутор? Какое зеркало рутор? Не работает rutor.org и зеркала? Тогда наш торрент специально для вас. Rutor.in неофициальное зеркало rutor. В случае если у Вас заблокирован rutor или вдруг Вы не можете на него зайти, то Вы без труда сможете скачать бесплатно и без рекламы последние новинки кино, игр, сериалов и прочего у нас, на Rutor.in. Не нужно использовать прокси, чтобы зайти на рутор, достаточно воспользоваться нашим ресурсом. Все новые фильмы, игры, сериалы, книги и музыка за 2013 и 2014 годы через торрент бесплатно. Скачивайте фильмы в хорошем качестве, игры для пк, xbox, playstation без регистрации. У нас вы найдете новые Зарубежные сериалы и Русские сериалы 2013, 2014, 2015 годов. Оставайтесь с нами, качайте любимые фильмы, игры, сериалы, книги и музыку.