img image001 image001 image001 image001 image001 image001 image001 image001 image001 image001 image001 image001 image001 image001 image001

Planets Sun Sun Sun
Статистика раздачи
Автор: Nickolas3434 | Размер: 1.83 ГБ | Добавлен: 11 июн 2016
Раздают: 0    Качают: 0
Скачать торрент
Скачать торрент
Описание торрента

СообщениеДобавлено: 11 июн 2016 


Информация о фильме
Название: Валерий Чкалов [01-04 из 04]
Год выхода: 2004
Жанр: Хроникально-документальный
Режиссер: М.Дегтярь, Э.Дубровский
О фильме:
Авторы (М.Дегтярь и Э.Дубровский) сумели миновать две в равной степени соблазнительные крайности: повторить расхожие мифы, в которых летчик представлен эдаким бронзовым монументом, или же, напротив, в духе модного нынче низвержения кумиров рассказать о нем множество мелких бытовых гадостей, приземляющих и унижающих образ этого удивительного человека. В этом фильме Чкалов, как настоящая яркая и масштабная личность, полон противоречий. Он отчаянно храбр и вместе с тем расчетлив. Не любит оков дисциплины и безоговорочно трогательно подчиняется жене. Тайком венчается в церкви и произносит речи во славу партии большевиков...
При такой противоречивости человеческих качеств легко было потерять то главное, что делает фигуру Чкалова цельной. Авторы тщательно проследили историю его жизни - с детства, прошедшего в деревеньке на берегу Волги, до того, как на героя обрушилась всемирная слава, от которой у любого могла закружиться голова.
В фильме искусно сопряжены разные сюжетно-стилистические пласты. Удачно вплетены в повествование фрагменты художественного фильма, снятого перед самой войной Михаилом Калатозовым, использованы воспоминания родных, друзей, коллег. Большое место занимает хроника. Органично вошли в ленту кадры трех перелетов через Северный полюс в Америку - первый - знаменитый чкаловский, затем тот, когда его товарищи по экипажу отправились сорок лет спустя на открытие в Штатах музея, посвященного их подвигу, и, наконец, сегодняшний полет съемочной группы по следам событий далекого прошлого.
Авторы умеют найти лаконичную деталь, способную лучше всяких слов объяснить величие летчика. То это тесная неотапливаемая кабина того самого АНТ-25, в которую тщетно пытается втиснуться ведущий. То самый современный летный тренажер, где журналист пытается воспроизвести сложный маневр, какой Чкалов совершил когда-то на допотопном биплане. Начинаешь яснее воспринимать любимый девиз летчика: "Если быть, то быть лучшим".
Запись потока *.ts с наземного цифрового телеканала "Беларусь 3", ремукс в *.mkv программой VideoReDo.
Страна: Российская Федерация
Продолжительность: ~00:26:00 * 4 серии
Перевод: Не требуется
Файл
Кодек: AVC (H264)
Качество: DVB
Видео: AVC (H264), 720x576 (4:3), 25 fps, 2 205 Kbps
Звук: MP2, 256 kbps, 2 channels, 48 kHz
Сэмпл: http://multi-up.com/1104999
Валерий Чкалов_01_Испытание характера (2004)
Валерий Чкалов_02_Дистанция смерти (2004)
Валерий Чкалов_03_Прыжок через полюс (2004)
Валерий Чкалов_04_Последний полёт (2004)

Код:
General
Unique ID                      : 251498700041221493553777517177064399013 (0xBD34E342D2A3C2F70F86A9733FD420A5)
Complete name                  : D:Новая  земля 20001Валерий Чкалов (2004)Валерий Чкалов_01_Ипытание характера (2004).mkv
Format                         : Matroska
Format version                 : Version 2
File size                      : 466 MiB
Duration                       : 25mn 56s
Overall bit rate               : 2 511 Kbps
Writing application            : Lavf52.64.2
Writing library                : Lavf52.64.2
Video
ID                             : 1
Format                         : AVC
Format/Info                    : Advanced Video Codec
Format profile                 : Main@L3.0
Format settings, CABAC         : Yes
Format settings, ReFrames      : 4 frames
Format settings, GOP           : M=4, N=24
Codec ID                       : V_MPEG4/ISO/AVC
Duration                       : 25mn 56s
Bit rate                       : 2 205 Kbps
Width                          : 720 pixels
Height                         : 576 pixels
Display aspect ratio           : 4:3
Original display aspect ratio  : 4:3
Frame rate mode                : Constant
Frame rate                     : 25.000 fps
Standard                       : PAL
Color space                    : YUV
Chroma subsampling             : 4:2:0
Bit depth                      : 8 bits
Scan type                      : MBAFF
Scan order                     : Top Field First
Bits/(Pixel*Frame)             : 0.213
Stream size                    : 409 MiB (88%)
Default                        : Yes
Forced                         : No
Color primaries                : BT.601 PAL
Transfer characteristics       : BT.470 System B, BT.470 System G
Matrix coefficients            : BT.601
Color range                    : Limited
Audio
ID                             : 2
Format                         : MPEG Audio
Format version                 : Version 1
Format profile                 : Layer 2
Codec ID                       : A_MPEG/L2
Codec ID/Hint                  : MP2
Duration                       : 25mn 56s
Bit rate mode                  : Constant
Bit rate                       : 256 Kbps
Channel(s)                     : 2 channels
Sampling rate                  : 48.0 KHz
Compression mode               : Lossy
Stream size                    : 47.5 MiB (10%)
Language                       : English
Default                        : Yes
Forced                         : No
 




   Похожие торренты   Торрент   Размер 
В этой теме нет новых непрочитанных сообщений. Валерий Чкалов (1941) DVDRip от Youtracker

36 | 5

1.45 ГБ

В этой теме нет новых непрочитанных сообщений. Валерий Чкалов (1941) DVDRip-AVC от Youtracker

9 | 4

1.46 ГБ

В этой теме нет новых непрочитанных сообщений. Валерий Чкалов. Жил-был лётчик (2014) WEBRip от Generalfilm

134 | 9

548.15 МБ

В этой теме нет новых непрочитанных сообщений. Валерий Щитов - Современный кикбоксинг (2004) PDF

54 | 5

17.81 МБ

В этой теме нет новых непрочитанных сообщений. Валерий Ободзинский - Золотая Коллекция Ретро 2 CD (2004) APE by гаврила

17 | 6

680.13 МБ

В этой теме нет новых непрочитанных сообщений. Славянский базар 2004. Антология (2004) DVB от AND03AND

0 | 2

988.07 МБ

В этой теме нет новых непрочитанных сообщений. Валерий Босс - Лекции по математике [16 томов] (2004-2011) DJVU

71 | 3

45.17 МБ




Вы не можете начинать темы
Вы не можете отвечать на сообщения
Вы не можете редактировать свои сообщения
Вы не можете удалять свои сообщения
Вы не можете добавлять вложения

Перейти:  
Для Мосгорсуда, Роскомнадзора и рекламодателей: mosgorsud-torrent[собачка]yandex.ru
 Вход
ppkBB3cker v.2 © 2008-2014 @ PPK
[ Time : 0.037s | 14 Queries | GZIP : On ]

Торрент трекер RUTOR.IN, Не можете зайти на rutor.org? Какой новый адрес рутор? Какое зеркало рутор? Не работает rutor.org и зеркала? Тогда наш торрент специально для вас. Rutor.in неофициальное зеркало rutor. В случае если у Вас заблокирован rutor или вдруг Вы не можете на него зайти, то Вы без труда сможете скачать бесплатно и без рекламы последние новинки кино, игр, сериалов и прочего у нас, на Rutor.in. Не нужно использовать прокси, чтобы зайти на рутор, достаточно воспользоваться нашим ресурсом. Все новые фильмы, игры, сериалы, книги и музыка за 2013 и 2014 годы через торрент бесплатно. Скачивайте фильмы в хорошем качестве, игры для пк, xbox, playstation без регистрации. У нас вы найдете новые Зарубежные сериалы и Русские сериалы 2013, 2014, 2015 годов. Оставайтесь с нами, качайте любимые фильмы, игры, сериалы, книги и музыку.