img image001 image001 image001 image001 image001 image001 image001 image001 image001 image001 image001 image001 image001 image001 image001

Planets Sun Sun Sun
Статистика раздачи
Автор: Nickolas3434 | Размер: 501.6 МБ | Добавлен: 11 июн 2016
Раздают: 3    Качают: 1
Скачать торрент
Скачать торрент
Описание торрента

СообщениеДобавлено: 11 июн 2016 

Телекомпания: Ocean TV
Жанр: Документальный, Телепередача
Участники: Жан Селезнёв, Владислав Зубов, Олег Божок
Описание:
Пассажирский паром «Salem Express» был построен в 1966 году. Затонул 15 декабря 1991 г. на расстоянии 11 км от порта Сафаги, натолкнувшись на западную часть кораллового рифа Hyndman. «Салем Экспресс» направлялся из Jeddah (Саудовской Аравии) в Сафагу, на борту находилось около 690 пассажиров – паломников из Мекки. Из-за навигационных просчётов паром натолкнулся на риф Hyndman. От сильного удара после столкновения 1000-тонного корабля с рифом открылся доступ в грузовой отсек в носу корабля. Вода устремилась внутрь судна и затопила трюмы в считанные минуты. Спастись удалось только 180 пассажирам. Длина судна - 110 метров, водоизмещение – 1.105 т. Паром находится на глубине от 10 до 32 метров. Он лежит правым бортом на основании рифа носом с общим уклоном 15° от носа к корме и виден с поверхности. Фильм получил приз за лучший документальный фильм в номинации "Wreck" на Московском Международном фестивале «Золотой Дельфин» в 2008 году. «Титаник Красного моря» был особо отмечен главным редактором журнала Total DVD Борисом Хохловым за качество видео.
Продолжительность: 00:51:03
Качество видео: IPTVRip
Видео: 592x480 (1.23:1), 25 fps, XviD build 73 ~1171 kbps avg, 0.17 bit/pixel
Аудио: AC3, 48 kHz, 2 ch, 192 kbps
Формат : AVI
Формат/Информация : Audio Video Interleave
Размер файла : 502 Мбайт
Продолжительность : 51 м.
Общий поток : 1374 Кбит/сек
Программа кодирования : VirtualDubMod 1.5.10.3 | www.virtualdub-fr.org || (build 2550/release)
Библиотека кодирования : VirtualDubMod build 2550/release
Видео
Идентификатор : 0
Формат : MPEG-4 Visual
Профиль формата : Advanced Simple@L5
Параметр BVOP формата : 1
Параметр QPel формата : Нет
Параметр GMC формата : Без точки перехода
Параметр матрицы формата : Выборочная
Идентификатор кодека : XVID
Идентификатор кодека/Подсказка : XviD
Продолжительность : 51 м.
Битрейт : 1172 Кбит/сек
Ширина : 592 пикселя
Высота : 480 пикселей
Соотношение сторон : 5:4
Частота кадров : 25,000 кадров/сек
Цветовое пространство : YUV
Субдискретизация насыщенности : 4:2:0
Битовая глубина : 8 бит
Тип развёртки : Прогрессивная
Метод сжатия : С потерями
Бит/(Пиксели*Кадры) : 0.165
Размер потока : 428 Мбайт (85%)
Библиотека кодирования : XviD 73
Аудио
Идентификатор : 1
Формат : AC-3
Формат/Информация : Audio Coding 3
Профиль формата : Dolby Digital
Расширение режима : CM (complete main)
Параметр Endianness формата : Big
Идентификатор кодека : 2000
Продолжительность : 51 м.
Вид битрейта : Постоянный
Битрейт : 192 Кбит/сек
Каналы : 2 канала
Расположение каналов : Front: L R
Частота : 48,0 КГц
Битовая глубина : 16 бит
Метод сжатия : С потерями
Размер потока : 70,1 Мбайт (14%)
Выравнивание : Разделение по промежуткам
Продолжительность промежутка : 40 мс. (1,00 видеокадр)
Время предзагрузки промежутка : 500 мс.

Скриншоты:



   Похожие торренты   Торрент   Размер 
В этой теме нет новых непрочитанных сообщений. Титаник Красного моря (2007) IPTVRemux

13 | 3

980.21 МБ

В этой теме нет новых непрочитанных сообщений. Обитатели Красного моря / Deep Sea (2007) BDRip от HQ-ViDEO

233 | 33

2.9 ГБ

В этой теме нет новых непрочитанных сообщений. Гинденбург. Титаник небес / Hindenburg (2007) IPTVRip-AVC от Pshichko66

24 | 2

1.66 ГБ

В этой теме нет новых непрочитанных сообщений. Евгений Гришковец - Титаник (2007) DVDRip

62 | 20

806.15 МБ

В этой теме нет новых непрочитанных сообщений. Странное дело. Демоны моря [29.04] (2012) IPTVRip от Generalfilm

8 | 3

583.29 МБ

В этой теме нет новых непрочитанных сообщений. Звуки природы - Здоровый сон у моря - Релакс (2007) MP3

243 | 11

166.1 МБ

В этой теме нет новых непрочитанных сообщений. Тайны Белого моря (2007) BDRip 720p

4 | 4

1.87 ГБ




Вы не можете начинать темы
Вы не можете отвечать на сообщения
Вы не можете редактировать свои сообщения
Вы не можете удалять свои сообщения
Вы не можете добавлять вложения

Перейти:  
Для Мосгорсуда, Роскомнадзора и рекламодателей: mosgorsud-torrent[собачка]yandex.ru
 Вход
ppkBB3cker v.2 © 2008-2014 @ PPK
[ Time : 0.055s | 15 Queries | GZIP : Off ]

Торрент трекер RUTOR.IN, Не можете зайти на rutor.org? Какой новый адрес рутор? Какое зеркало рутор? Не работает rutor.org и зеркала? Тогда наш торрент специально для вас. Rutor.in неофициальное зеркало rutor. В случае если у Вас заблокирован rutor или вдруг Вы не можете на него зайти, то Вы без труда сможете скачать бесплатно и без рекламы последние новинки кино, игр, сериалов и прочего у нас, на Rutor.in. Не нужно использовать прокси, чтобы зайти на рутор, достаточно воспользоваться нашим ресурсом. Все новые фильмы, игры, сериалы, книги и музыка за 2013 и 2014 годы через торрент бесплатно. Скачивайте фильмы в хорошем качестве, игры для пк, xbox, playstation без регистрации. У нас вы найдете новые Зарубежные сериалы и Русские сериалы 2013, 2014, 2015 годов. Оставайтесь с нами, качайте любимые фильмы, игры, сериалы, книги и музыку.