img image001 image001 image001 image001 image001 image001 image001 image001 image001 image001 image001 image001 image001 image001 image001

Planets Sun Sun Sun
Статистика раздачи
Автор: Nickolas3434 | Размер: 1.14 ГБ | Добавлен: 13 июн 2016
Раздают: 1    Качают: 0
Скачать торрент
Скачать торрент
Описание торрента

СообщениеДобавлено: 13 июн 2016 

Роналду / Ronaldo


#77
Год выпуска: 2014
Страна: Великобритания | On The Corner Films | We Came, We Saw | We Conquered Studios
Жанр: Документальный
Продолжительность: 1:26:51
Перевод: Профессиональный (многоголосый закадровый) | "Эй Би Видео" по заказу "Первого Канала"
Режиссеры: Энтони Вонке / Anthony Wonke

Описание: Первый официальный фильм о легендарном футболисте Криштиану Роналду, полностью утверждённый главным героем. Зрители впервые получат возможность попасть за закрытые двери и беспристрастно оценить Роналду футболиста, отца, семьянина и друга. Обстоятельные беседы, отрывки снятых по последнему слову техники футбольных матчей и прежде не публиковавшиеся архивные материалы позволят взглянуть на профессиональную и личную жизнь обладателя трех "Золотых мячей" на пике его спортивной карьеры.


Автор рипа: lrn
Автор записи: GeneralFilm
Сэмпл: sendfile

Тип релиза: HDTVRip-AVC
Контейнер: MKV
Видео: 1024x576 (16:9), 25,000 fps, H264, ~1500 kbps avg, ~0.102 bit/pixel
Аудио: 48 kHz, AC3 Dolby Digital, 3/2 (L,C,R,l,r) + LFE ch, ~384.00 kbps avg

General
Unique ID : 241667523183569782490032707463781793696 (0xB5CF78D19E2644FB862EDFF3BB5FBFA0)
Complete name : E:uTorrent.TempTempRonaldo.2015.HDTVRip-AVC.x264-RUS-lrn.mkv
Format : Matroska
Format version : Version 4 / Version 2
File size : 1.14 GiB
Duration : 1h 26mn
Overall bit rate : 1 886 Kbps
Movie name : Ronaldo.2015.HDTVRip-AVC.x264-RUS-lrn
Encoded date : UTC 2010-02-22 21:41:31
Writing application : mkvmerge v5.9.0 ('On The Loose') built on Dec 9 2012 15:37:01
Writing library : libebml v1.3.0 + libmatroska v1.4.0
Video
ID : 1
Format : AVC
Format/Info : Advanced Video Codec
Format profile : High@L4.1
Format settings, CABAC : Yes
Format settings, ReFrames : 8 frames
Codec ID : V_MPEG4/ISO/AVC
Duration : 1h 26mn
Bit rate : 1 500 Kbps
Width : 1 024 pixels
Height : 576 pixels
Display aspect ratio : 16:9
Frame rate mode : Constant
Frame rate : 25.000 fps
Color space : YUV
Chroma subsampling : 4:2:0
Bit depth : 8 bits
Scan type : Progressive
Bits/(Pixel*Frame) : 0.102
Stream size : 910 MiB (78%)
Writing library : x264 core 148 r2638 7599210
Encoding settings : cabac=1 / ref=8 / deblock=1:-3:-3 / analyse=0x3:0x133 / me=umh / subme=9 / psy=1 / psy_rd=1.00:0.00 / mixed_ref=1 / me_range=32 / chroma_me=1 / trellis=2 / 8x8dct=1 / cqm=0 / deadzone=21,11 / fast_pskip=1 / chroma_qp_offset=-2 / threads=12 / lookahead_threads=2 / sliced_threads=0 / nr=0 / decimate=1 / interlaced=0 / bluray_compat=0 / constrained_intra=0 / bframes=8 / b_pyramid=2 / b_adapt=2 / b_bias=0 / direct=3 / weightb=1 / open_gop=0 / weightp=2 / keyint=250 / keyint_min=25 / scenecut=40 / intra_refresh=0 / rc_lookahead=50 / rc=2pass / mbtree=1 / bitrate=1500 / ratetol=1.0 / qcomp=0.60 / qpmin=0 / qpmax=69 / qpstep=4 / cplxblur=20.0 / qblur=0.5 / vbv_maxrate=62500 / vbv_bufsize=78125 / nal_hrd=none / filler=0 / ip_ratio=1.40 / aq=1:1.00
Default : Yes
Forced : No
Statistics Tags Issue : mkvmerge v8.5.2 ('Crosses') 32bit 2016-06-11 19:09:16 / mkvmerge v5.9.0 ('On The Loose') built on Dec 9 2012 15:37:01 2010-02-22 21:41:31
FromStats_BitRate : 1499922
FromStats_Duration : 01:26:51.040000000
FromStats_FrameCount : 130276
FromStats_StreamSize : 977019379
Audio
ID : 2
Format : AC-3
Format/Info : Audio Coding 3
Mode extension : CM (complete main)
Format settings, Endianness : Big
Codec ID : A_AC3
Duration : 1h 26mn
Bit rate mode : Constant
Bit rate : 384 Kbps
Channel(s) : 6 channels
Channel positions : Front: L C R, Side: L R, LFE
Sampling rate : 48.0 KHz
Frame rate : 31.250 fps (1536 spf)
Compression mode : Lossy
Stream size : 239 MiB (20%)
Language : Russian
Default : Yes
Forced : No
raw [info]: 1024x576p 1:1 @ 25/1 fps (cfr)
x264 [info]: using SAR=1/1
x264 [info]: using cpu capabilities: MMX2 SSE2Fast SSSE3 SSE4.2 AVX
x264 [info]: profile High, level 4.1
x264 [info]: frame I:754 Avg QP:19.78 size: 46788
x264 [info]: frame P:37826 Avg QP:23.67 size: 14289
x264 [info]: frame B:91696 Avg QP:25.90 size: 4376
x264 [info]: consecutive B-frames: 6.0% 6.7% 14.4% 34.3% 18.0% 16.3% 2.4% 0.9% 1.0%
x264 [info]: mb I I16..4: 16.2% 69.0% 14.8%
x264 [info]: mb P I16..4: 4.3% 12.0% 1.4% P16..4: 43.3% 11.1% 9.0% 0.3% 0.1% skip:18.7%
x264 [info]: mb B I16..4: 0.4% 1.0% 0.1% B16..8: 34.4% 5.8% 1.4% direct: 3.6% skip:53.3% L0:41.3% L1:50.1% BI: 8.6%
x264 [info]: 8x8 transform intra:67.9% inter:74.8%
x264 [info]: direct mvs spatial:97.1% temporal:2.9%
x264 [info]: coded y,uvDC,uvAC intra: 55.1% 72.5% 34.2% inter: 13.4% 20.7% 2.2%
x264 [info]: i16 v,h,dc,p: 27% 21% 7% 44%
x264 [info]: i8 v,h,dc,ddl,ddr,vr,hd,vl,hu: 12% 11% 9% 8% 12% 12% 13% 11% 12%
x264 [info]: i4 v,h,dc,ddl,ddr,vr,hd,vl,hu: 15% 12% 5% 7% 13% 13% 13% 10% 12%
x264 [info]: i8c dc,h,v,p: 34% 26% 19% 20%
x264 [info]: Weighted P-Frames: Y:4.0% UV:2.1%
x264 [info]: ref P L0: 52.8% 13.8% 15.6% 5.0% 4.4% 3.1% 3.0% 1.8% 0.5% 0.0%
x264 [info]: ref B L0: 83.2% 8.5% 3.7% 1.9% 1.4% 0.9% 0.5%
x264 [info]: ref B L1: 95.8% 4.2%
x264 [info]: kb/s:1499.92
encoded 130276 frames, 23.14 fps, 1499.92 kb/s



   Похожие торренты   Торрент   Размер 
В этой теме нет новых непрочитанных сообщений. Роналду / Ronaldo (2015) HDTVRip 720p | P

7 | 1

2.66 ГБ

В этой теме нет новых непрочитанных сообщений. Роналду / Ronaldo (2015) HDTVRip от GeneralFilm | Первый Канал

277 | 1

1.09 ГБ

В этой теме нет новых непрочитанных сообщений. Роналду / Ronaldo (2015) HDRip | L2

1050 | 196

1.45 ГБ

В этой теме нет новых непрочитанных сообщений. Роналду / Ronaldo (2015) BDRip 1080p | Sub

839 | 249

9.31 ГБ

В этой теме нет новых непрочитанных сообщений. Роналду / Ronaldo (2015) HDRip от MegaPeer | P

118 | 39

1.46 ГБ

В этой теме нет новых непрочитанных сообщений. Роналду / Ronaldo (2015) BDRip 720p от New-Team | P

66 | 23

6.02 ГБ

В этой теме нет новых непрочитанных сообщений. Роналду / Ronaldo (2015) BDRip 1080p от New-Team | P

39 | 26

11.3 ГБ




Вы не можете начинать темы
Вы не можете отвечать на сообщения
Вы не можете редактировать свои сообщения
Вы не можете удалять свои сообщения
Вы не можете добавлять вложения

Перейти:  
Для Мосгорсуда, Роскомнадзора и рекламодателей: mosgorsud-torrent[собачка]yandex.ru
 Вход
ppkBB3cker v.2 © 2008-2014 @ PPK
[ Time : 0.023s | 15 Queries | GZIP : Off ]

Торрент трекер RUTOR.IN, Не можете зайти на rutor.org? Какой новый адрес рутор? Какое зеркало рутор? Не работает rutor.org и зеркала? Тогда наш торрент специально для вас. Rutor.in неофициальное зеркало rutor. В случае если у Вас заблокирован rutor или вдруг Вы не можете на него зайти, то Вы без труда сможете скачать бесплатно и без рекламы последние новинки кино, игр, сериалов и прочего у нас, на Rutor.in. Не нужно использовать прокси, чтобы зайти на рутор, достаточно воспользоваться нашим ресурсом. Все новые фильмы, игры, сериалы, книги и музыка за 2013 и 2014 годы через торрент бесплатно. Скачивайте фильмы в хорошем качестве, игры для пк, xbox, playstation без регистрации. У нас вы найдете новые Зарубежные сериалы и Русские сериалы 2013, 2014, 2015 годов. Оставайтесь с нами, качайте любимые фильмы, игры, сериалы, книги и музыку.