img image001 image001 image001 image001 image001 image001 image001 image001 image001 image001 image001 image001 image001 image001 image001

Planets Sun Sun Sun
Статистика раздачи
Автор: Nickolas3434 | Размер: 2.66 ГБ | Добавлен: 13 июн 2016
Раздают: 7    Качают: 1
Скачать торрент
Скачать торрент
Описание торрента

СообщениеДобавлено: 13 июн 2016 

Роналду / Ronaldo


#77
Год выпуска: 2014
Страна: Великобритания | On The Corner Films | We Came, We Saw | We Conquered Studios
Жанр: Документальный
Продолжительность: 1:26:51
Перевод: Профессиональный (многоголосый закадровый) | "Эй Би Видео" по заказу "Первого Канала"
Режиссеры: Энтони Вонке / Anthony Wonke

Описание: Первый официальный фильм о легендарном футболисте Криштиану Роналду, полностью утверждённый главным героем. Зрители впервые получат возможность попасть за закрытые двери и беспристрастно оценить Роналду футболиста, отца, семьянина и друга. Обстоятельные беседы, отрывки снятых по последнему слову техники футбольных матчей и прежде не публиковавшиеся архивные материалы позволят взглянуть на профессиональную и личную жизнь обладателя трех "Золотых мячей" на пике его спортивной карьеры.


Автор рипа: lrn
Автор записи: GeneralFilm
Сэмпл: sendfile

Тип релиза: HDTVRip 720p
Контейнер: MKV
Видео: 1280x720 (16:9), 25,000 fps, H264, ~4000 kbps avg, ~0.181 bit/pixel
Аудио: 48 kHz, AC3 Dolby Digital, 3/2 (L,C,R,l,r) + LFE ch, ~384.00 kbps avg

General
Unique ID : 176840123884782834927490872657920927609 (0x850A2B435077F725A8DCD4CEFBB02779)
Complete name : E:uTorrent.TempTempRonaldo.2015.HDTVRip.720p.x264-RUS-lrn.mkv
Format : Matroska
Format version : Version 4 / Version 2
File size : 2.66 GiB
Duration : 1h 26mn
Overall bit rate : 4 386 Kbps
Movie name : Ronaldo.2015.HDTVRip.720p.x264-RUS-lrn
Encoded date : UTC 2010-02-22 21:41:31
Writing application : mkvmerge v5.9.0 ('On The Loose') built on Dec 9 2012 15:37:01
Writing library : libebml v1.3.0 + libmatroska v1.4.0
Video
ID : 1
Format : AVC
Format/Info : Advanced Video Codec
Format profile : High@L4.1
Format settings, CABAC : Yes
Format settings, ReFrames : 8 frames
Codec ID : V_MPEG4/ISO/AVC
Duration : 1h 26mn
Bit rate : 4 000 Kbps
Width : 1 280 pixels
Height : 720 pixels
Display aspect ratio : 16:9
Frame rate mode : Constant
Frame rate : 25.000 fps
Color space : YUV
Chroma subsampling : 4:2:0
Bit depth : 8 bits
Scan type : Progressive
Bits/(Pixel*Frame) : 0.174
Stream size : 2.37 GiB (89%)
Writing library : x264 core 148 r2638 7599210
Encoding settings : cabac=1 / ref=8 / deblock=1:-3:-3 / analyse=0x3:0x133 / me=umh / subme=9 / psy=1 / psy_rd=1.00:0.00 / mixed_ref=1 / me_range=32 / chroma_me=1 / trellis=2 / 8x8dct=1 / cqm=0 / deadzone=21,11 / fast_pskip=1 / chroma_qp_offset=-2 / threads=12 / lookahead_threads=2 / sliced_threads=0 / nr=0 / decimate=1 / interlaced=0 / bluray_compat=0 / constrained_intra=0 / bframes=8 / b_pyramid=2 / b_adapt=2 / b_bias=0 / direct=3 / weightb=1 / open_gop=0 / weightp=2 / keyint=250 / keyint_min=25 / scenecut=40 / intra_refresh=0 / rc_lookahead=50 / rc=2pass / mbtree=1 / bitrate=4000 / ratetol=1.0 / qcomp=0.60 / qpmin=0 / qpmax=69 / qpstep=4 / cplxblur=20.0 / qblur=0.5 / vbv_maxrate=62500 / vbv_bufsize=78125 / nal_hrd=none / filler=0 / ip_ratio=1.40 / aq=1:1.00
Default : Yes
Forced : No
Statistics Tags Issue : mkvmerge v8.5.2 ('Crosses') 32bit 2016-06-12 11:55:02 / mkvmerge v5.9.0 ('On The Loose') built on Dec 9 2012 15:37:01 2010-02-22 21:41:31
FromStats_BitRate : 3999812
FromStats_Duration : 01:26:51.040000000
FromStats_FrameCount : 130276
FromStats_StreamSize : 2605397579
Audio
ID : 2
Format : AC-3
Format/Info : Audio Coding 3
Mode extension : CM (complete main)
Format settings, Endianness : Big
Codec ID : A_AC3
Duration : 1h 26mn
Bit rate mode : Constant
Bit rate : 384 Kbps
Channel(s) : 6 channels
Channel positions : Front: L C R, Side: L R, LFE
Sampling rate : 48.0 KHz
Frame rate : 31.250 fps (1536 spf)
Compression mode : Lossy
Stream size : 239 MiB (9%)
Language : Russian
Default : Yes
Forced : No
raw [info]: 1280x720p 1:1 @ 25/1 fps (cfr)
x264 [info]: using SAR=1/1
x264 [info]: using cpu capabilities: MMX2 SSE2Fast SSSE3 SSE4.2 AVX
x264 [info]: profile High, level 4.1
x264 [info]: frame I:737 Avg QP:15.79 size: 92039
x264 [info]: frame P:38848 Avg QP:19.61 size: 35547
x264 [info]: frame B:90691 Avg QP:21.24 size: 12754
x264 [info]: consecutive B-frames: 6.5% 7.3% 15.0% 34.5% 17.4% 15.7% 2.2% 0.8% 0.6%
x264 [info]: mb I I16..4: 12.7% 73.0% 14.3%
x264 [info]: mb P I16..4: 4.4% 16.8% 1.8% P16..4: 41.3% 15.9% 9.8% 0.3% 0.1% skip: 9.6%
x264 [info]: mb B I16..4: 0.5% 1.7% 0.3% B16..8: 36.4% 9.1% 2.2% direct: 8.9% skip:41.0% L0:40.7% L1:46.1% BI:13.3%
x264 [info]: 8x8 transform intra:72.2% inter:71.7%
x264 [info]: direct mvs spatial:98.7% temporal:1.3%
x264 [info]: coded y,uvDC,uvAC intra: 65.1% 85.8% 57.6% inter: 24.6% 37.6% 7.9%
x264 [info]: i16 v,h,dc,p: 35% 18% 6% 41%
x264 [info]: i8 v,h,dc,ddl,ddr,vr,hd,vl,hu: 13% 13% 9% 7% 11% 12% 12% 11% 13%
x264 [info]: i4 v,h,dc,ddl,ddr,vr,hd,vl,hu: 14% 13% 5% 7% 13% 13% 13% 10% 12%
x264 [info]: i8c dc,h,v,p: 38% 25% 18% 19%
x264 [info]: Weighted P-Frames: Y:3.4% UV:1.9%
x264 [info]: ref P L0: 50.9% 11.9% 16.7% 5.8% 5.0% 3.5% 3.4% 2.2% 0.5% 0.0%
x264 [info]: ref B L0: 82.6% 9.2% 3.5% 1.9% 1.4% 0.9% 0.5%
x264 [info]: ref B L1: 95.9% 4.1%
x264 [info]: kb/s:3999.81
encoded 130276 frames, 12.76 fps, 3999.81 kb/s



   Похожие торренты   Торрент   Размер 
В этой теме нет новых непрочитанных сообщений. Роналду / Ronaldo (2015) HDTVRip-AVC | P

1 | 0

1.14 ГБ

В этой теме нет новых непрочитанных сообщений. Роналду / Ronaldo (2015) HDTVRip от GeneralFilm | Первый Канал

277 | 1

1.09 ГБ

В этой теме нет новых непрочитанных сообщений. Роналду / Ronaldo (2015) BDRip 720p от New-Team | P

66 | 23

6.02 ГБ

В этой теме нет новых непрочитанных сообщений. Роналду / Ronaldo (2015) HDRip | L2

1050 | 196

1.45 ГБ

В этой теме нет новых непрочитанных сообщений. Роналду / Ronaldo (2015) BDRip 1080p | Sub

839 | 249

9.31 ГБ

В этой теме нет новых непрочитанных сообщений. Роналду / Ronaldo (2015) HDRip от MegaPeer | P

118 | 39

1.46 ГБ

В этой теме нет новых непрочитанных сообщений. Роналду / Ronaldo (2015) BDRip 1080p от New-Team | P

39 | 26

11.3 ГБ




Вы не можете начинать темы
Вы не можете отвечать на сообщения
Вы не можете редактировать свои сообщения
Вы не можете удалять свои сообщения
Вы не можете добавлять вложения

Перейти:  
Для Мосгорсуда, Роскомнадзора и рекламодателей: mosgorsud-torrent[собачка]yandex.ru
 Вход
ppkBB3cker v.2 © 2008-2014 @ PPK
[ Time : 0.552s | 15 Queries | GZIP : On ]

Торрент трекер RUTOR.IN, Не можете зайти на rutor.org? Какой новый адрес рутор? Какое зеркало рутор? Не работает rutor.org и зеркала? Тогда наш торрент специально для вас. Rutor.in неофициальное зеркало rutor. В случае если у Вас заблокирован rutor или вдруг Вы не можете на него зайти, то Вы без труда сможете скачать бесплатно и без рекламы последние новинки кино, игр, сериалов и прочего у нас, на Rutor.in. Не нужно использовать прокси, чтобы зайти на рутор, достаточно воспользоваться нашим ресурсом. Все новые фильмы, игры, сериалы, книги и музыка за 2013 и 2014 годы через торрент бесплатно. Скачивайте фильмы в хорошем качестве, игры для пк, xbox, playstation без регистрации. У нас вы найдете новые Зарубежные сериалы и Русские сериалы 2013, 2014, 2015 годов. Оставайтесь с нами, качайте любимые фильмы, игры, сериалы, книги и музыку.