img image001 image001 image001 image001 image001 image001 image001 image001 image001 image001 image001 image001 image001 image001 image001

Planets Sun Sun Sun
Статистика раздачи
Автор: Nickolas3434 | Размер: 712.1 МБ | Добавлен: 30 июн 2016
Раздают: 4    Качают: 1
Скачать торрент
Скачать торрент
Описание торрента

СообщениеДобавлено: 30 июн 2016 


Информация о фильме
Название: Тростенец. Мы должны им память...
Год выхода: 2015
Жанр: Хроникально-документальный
Режиссер: Юрий Горулев
О фильме:
Хроникально-документальный фильм о Тростенецком лагере смерти под Минском, в котором в 1941-44 годах фашистами было уничтожено более 200 тысяч человек. После войны о Тростенце как бы забыли. Только спустя десятилетия, уже в наше время начались серьезные исследования и возведение мемориального комплекса. Между тем Тростенец являлся одним из самых крупных лагерей смерти на территории Европы.
Крупнейшим на территории Беларуси местом массового уничтожения людей в годы немецко-фашистской оккупации являлся Тростенец. По количеству жертв он занимает четвертое место после таких печально известных нацистских лагерей смерти в Европе, как Освенцим, Майданек и Треблинка.
В Тростенце погибли советские военнопленные, евреи Беларуси и западноевропейских государств, подпольщики и партизаны, жители Минска, арестованные в качестве заложников. В фильме мы слышим голоса жертв и палачей лагеря, свидетельства чудом выживших узников.
Название «Тростенец» объединяет несколько мест массового уничтожения людей: урочище Благовщина — место массовых расстрелов; собственно лагерь — рядом с деревней Малый Тростенец в десяти километрах от Минска по Могилевскому шоссе; урочище Шашковка — место массового сожжения людей.
Доп. информация: Запись потока *.ts с наземного цифрового телеканала "Беларусь 3", ремукс в *.mkv программой VideoReDo.
Страна: Республика Беларусь
Студия: Летопись, Беларусьфильм
Продолжительность: 00:39:37
Перевод: Не требуется
Файл
Кодек: AVC (H264)
Качество: BD
Видео: AVC (H264), 720x576 (4:3), 25 fps, 2 207 Kbps
Звук: MP2, 256 kbps, 2 channels, 48 kHz
Семпл
Код:
General
Unique ID                      : 42383484911890717456033720322371303801 (0x1FE2C324625DC5154B46D5FD5EE73979)
Complete name                  : D:Новая  земля 2\00001Тростенец. Мы должны им память... (2015)Тростенец. Мы должны им память... (2015).mkv
Format                         : Matroska
Format version                 : Version 2
File size                      : 712 MiB
Duration                       : 39mn 37s
Overall bit rate               : 2 513 Kbps
Writing application            : Lavf52.64.2
Writing library                : Lavf52.64.2
Video
ID                             : 1
Format                         : AVC
Format/Info                    : Advanced Video Codec
Format profile                 : Main@L3.0
Format settings, CABAC         : Yes
Format settings, ReFrames      : 4 frames
Format settings, GOP           : M=4, N=24
Codec ID                       : V_MPEG4/ISO/AVC
Duration                       : 39mn 37s
Bit rate                       : 2 207 Kbps
Width                          : 720 pixels
Height                         : 576 pixels
Display aspect ratio           : 4:3
Original display aspect ratio  : 4:3
Frame rate mode                : Constant
Frame rate                     : 25.000 fps
Standard                       : PAL
Color space                    : YUV
Chroma subsampling             : 4:2:0
Bit depth                      : 8 bits
Scan type                      : MBAFF
Scan order                     : Top Field First
Bits/(Pixel*Frame)             : 0.213
Stream size                    : 625 MiB (88%)
Default                        : Yes
Forced                         : No
Color primaries                : BT.601 PAL
Transfer characteristics       : BT.470 System B, BT.470 System G
Matrix coefficients            : BT.601
Color range                    : Limited
Audio
ID                             : 2
Format                         : MPEG Audio
Format version                 : Version 1
Format profile                 : Layer 2
Codec ID                       : A_MPEG/L2
Codec ID/Hint                  : MP2
Duration                       : 39mn 37s
Bit rate mode                  : Constant
Bit rate                       : 256 Kbps
Channel(s)                     : 2 channels
Sampling rate                  : 48.0 KHz
Compression mode               : Lossy
Stream size                    : 72.6 MiB (10%)
Language                       : English
Default                        : Yes
Forced                         : No
 




   Похожие торренты   Торрент   Размер 
В этой теме нет новых непрочитанных сообщений. Жанна Фриске - Светлая память тебе! (2015) MP3

969 | 133

844.33 МБ

В этой теме нет новых непрочитанных сообщений. Феноменальная память для занятых людей. Видеокурс (2015) PCRec

354 | 6

2.25 ГБ

В этой теме нет новых непрочитанных сообщений. Все должны умереть (2007) DVDRip

127 | 36

1.36 ГБ

В этой теме нет новых непрочитанных сообщений. Все супергерои должны погибнуть / All Superheroes Must Die / Vs (2011) HDRip | L1

28 | 5

1.37 ГБ

В этой теме нет новых непрочитанных сообщений. Ракеты не должны взлететь (1966) DVDRip от Alekxandr48

8 | 9

1.37 ГБ

В этой теме нет новых непрочитанных сообщений. Все супергерои должны погибнуть / All Superheroes Must Die / Vs (2012) HDRip от BTT-TEAM

18 | 2

1.47 ГБ

В этой теме нет новых непрочитанных сообщений. ЖЭК. За что мы платим. Что нам должны. Как платить меньше. Что делать, если… (2007) PDF

11 | 28

2.55 МБ




Вы не можете начинать темы
Вы не можете отвечать на сообщения
Вы не можете редактировать свои сообщения
Вы не можете удалять свои сообщения
Вы не можете добавлять вложения

Перейти:  
Для Мосгорсуда, Роскомнадзора и рекламодателей: mosgorsud-torrent[собачка]yandex.ru
 Вход
ppkBB3cker v.2 © 2008-2014 @ PPK
[ Time : 0.033s | 14 Queries | GZIP : Off ]

Торрент трекер RUTOR.IN, Не можете зайти на rutor.org? Какой новый адрес рутор? Какое зеркало рутор? Не работает rutor.org и зеркала? Тогда наш торрент специально для вас. Rutor.in неофициальное зеркало rutor. В случае если у Вас заблокирован rutor или вдруг Вы не можете на него зайти, то Вы без труда сможете скачать бесплатно и без рекламы последние новинки кино, игр, сериалов и прочего у нас, на Rutor.in. Не нужно использовать прокси, чтобы зайти на рутор, достаточно воспользоваться нашим ресурсом. Все новые фильмы, игры, сериалы, книги и музыка за 2013 и 2014 годы через торрент бесплатно. Скачивайте фильмы в хорошем качестве, игры для пк, xbox, playstation без регистрации. У нас вы найдете новые Зарубежные сериалы и Русские сериалы 2013, 2014, 2015 годов. Оставайтесь с нами, качайте любимые фильмы, игры, сериалы, книги и музыку.