img image001 image001 image001 image001 image001 image001 image001 image001 image001 image001 image001 image001 image001 image001 image001

Planets Sun Sun Sun
Статистика раздачи
Автор: Nickolas3434 | Размер: 700.54 МБ | Добавлен: 30 июн 2016
Раздают: 11    Качают: 2
Скачать торрент
Скачать торрент
Описание торрента

СообщениеДобавлено: 30 июн 2016 


Информация о фильме
Название: Чтобы жили другие
Год выхода: 2015
Жанр: Хроникально-документальный
Режиссер: Татьяна Малова
О фильме:
Документальный фильм о ранее неизвестных подвигах советских воинов во время Великой Отечественной Войны.
Фильм построен на документах из Центрального архива Министерства обороны РФ. Суммируя сухие архивные факты, связанные с периодом 1941 - 1945 годов, приходишь к потрясающему выводу: "массовый героизм" времен Великой Отечественной - это не выдумка сталинских пропагандистов, а абсолютная реальность, по своим масштабам не имеющая прецедентов в мировой истории.
Доп. информация: Запись потока *.ts с наземного цифрового телеканала "Беларусь 3", ремукс в *.mkv программой VideoReDo.
Страна: Российская Федерация
Студия: ТРК "Плеяда"
Продолжительность: 00:38:59
Перевод: Не требуется
Файл
Кодек: AVC (H264)
Качество: DVB
Видео: MPEG4 Video (H264) 720x576 (49:36) 25fps, 2 206 Kbps
Звук: MPEG Audio 48000Hz stereo 256kbps
Семпл
Код:
General
Unique ID                      : 171651111295475559752793763875242762681 (0x8122CD309EAF66BCA862149FA381E1B9)
Complete name                  : D:Новая  земля 2\001 Документальный фильмыВОВ и другие войныЧтобы жили другие (2015)Чтобы жили другие (2015).mkv
Format                         : Matroska
Format version                 : Version 2
File size                      : 701 MiB
Duration                       : 38mn 59s
Overall bit rate               : 2 512 Kbps
Writing application            : Lavf52.64.2
Writing library                : Lavf52.64.2
Video
ID                             : 1
Format                         : AVC
Format/Info                    : Advanced Video Codec
Format profile                 : Main@L3.0
Format settings, CABAC         : Yes
Format settings, ReFrames      : 4 frames
Format settings, GOP           : M=4, N=24
Codec ID                       : V_MPEG4/ISO/AVC
Duration                       : 38mn 59s
Bit rate                       : 2 206 Kbps
Width                          : 720 pixels
Height                         : 576 pixels
Display aspect ratio           : 4:3
Original display aspect ratio  : 4:3
Frame rate mode                : Constant
Frame rate                     : 25.000 fps
Standard                       : PAL
Color space                    : YUV
Chroma subsampling             : 4:2:0
Bit depth                      : 8 bits
Scan type                      : MBAFF
Scan order                     : Top Field First
Bits/(Pixel*Frame)             : 0.213
Stream size                    : 615 MiB (88%)
Default                        : Yes
Forced                         : No
Color primaries                : BT.601 PAL
Transfer characteristics       : BT.470 System B, BT.470 System G
Matrix coefficients            : BT.601
Color range                    : Limited
Audio
ID                             : 2
Format                         : MPEG Audio
Format version                 : Version 1
Format profile                 : Layer 2
Codec ID                       : A_MPEG/L2
Codec ID/Hint                  : MP2
Duration                       : 38mn 59s
Bit rate mode                  : Constant
Bit rate                       : 256 Kbps
Channel(s)                     : 2 channels
Sampling rate                  : 48.0 KHz
Compression mode               : Lossy
Stream size                    : 71.4 MiB (10%)
Language                       : English
Default                        : Yes
Forced                         : No




   Похожие торренты   Торрент   Размер 
В этой теме нет новых непрочитанных сообщений. Жили три холостяка (1973) DVDRip

111 | 7

1.37 ГБ

В этой теме нет новых непрочитанных сообщений. Жили три холостяка (1973) DVDRip

384 | 168

1.79 ГБ

В этой теме нет новых непрочитанных сообщений. Жили-пили (1985) DVDRip

8 | 6

95.46 МБ

В этой теме нет новых непрочитанных сообщений. Мелодия - Жили-были ёжики (1976) MP3

83 | 4

108.98 МБ

В этой теме нет новых непрочитанных сообщений. Они и мы. С тех пор они жили... [04.02] (2014) IPTVRip 720p от waPBX

19 | 2

484.58 МБ

В этой теме нет новых непрочитанных сообщений. Жили-были старик со старухой (1965) DVDRip

42 | 30

1.77 ГБ

В этой теме нет новых непрочитанных сообщений. Жили-были в первом классе... (1977) WEBRip

96 | 7

808.47 МБ




Вы не можете начинать темы
Вы не можете отвечать на сообщения
Вы не можете редактировать свои сообщения
Вы не можете удалять свои сообщения
Вы не можете добавлять вложения

Перейти:  
Для Мосгорсуда, Роскомнадзора и рекламодателей: mosgorsud-torrent[собачка]yandex.ru
 Вход
ppkBB3cker v.2 © 2008-2014 @ PPK
[ Time : 0.049s | 14 Queries | GZIP : On ]

Торрент трекер RUTOR.IN, Не можете зайти на rutor.org? Какой новый адрес рутор? Какое зеркало рутор? Не работает rutor.org и зеркала? Тогда наш торрент специально для вас. Rutor.in неофициальное зеркало rutor. В случае если у Вас заблокирован rutor или вдруг Вы не можете на него зайти, то Вы без труда сможете скачать бесплатно и без рекламы последние новинки кино, игр, сериалов и прочего у нас, на Rutor.in. Не нужно использовать прокси, чтобы зайти на рутор, достаточно воспользоваться нашим ресурсом. Все новые фильмы, игры, сериалы, книги и музыка за 2013 и 2014 годы через торрент бесплатно. Скачивайте фильмы в хорошем качестве, игры для пк, xbox, playstation без регистрации. У нас вы найдете новые Зарубежные сериалы и Русские сериалы 2013, 2014, 2015 годов. Оставайтесь с нами, качайте любимые фильмы, игры, сериалы, книги и музыку.