img image001 image001 image001 image001 image001 image001 image001 image001 image001 image001 image001 image001 image001 image001 image001

Planets Sun Sun Sun
Статистика раздачи
Автор: Nickolas3434 | Размер: 782.64 МБ | Добавлен: 29 июн 2016
Раздают: 15    Качают: 2
Скачать торрент
Скачать торрент
Описание торрента

СообщениеДобавлено: 29 июн 2016 


Информация о фильме
Название: Брестская крепость
Год выхода: 2007
Жанр: Документальный
Режиссер: Андрей Велемицын, Руслан Зайнетдинов
О фильме:
Фильм о первом поистине героическом сражении Великой Отечественной войны – обороне Брестской крепости. Борьба за нее началась 22 июня 1941 года и продолжалось долгих 29 дней. Авторы при помощи впечатляющих компьютерных реконструкций воссоздают атмосферу первых дней боев за крепость. В фильме использованы уникальные кадры хроники, а также принимают участие сами защитники крепости.
Доп. информация: Запись потока *.ts с наземного цифрового телеканала "Беларусь 3", ремукс в *.mkv программой VideoReDo.
Страна: Россия, Республика Беларусь
Студия: ВоенТВ (Беларусь), ТРО Союзного государства
Продолжительность: 00:43:32
Перевод: Не требуется
Файл
Кодек: AVC (H264)
Качество: DVB
Видео: AVC (H264), 720x576 (4:3), 25 fps, 2 207 Kbps
Звук: MP2, 256 kbps, 2 channels, 48 kHz
Код:
General
Unique ID                      : 145950310285184180376709836361343602299 (0x6DCD01DE38C31B08A26B76D6C9EA8E7B)
Complete name                  : D:Новая  земля 2\001 Документальный фильмыВОВ и другие войныБрестская крепость (2007)Брестская крепость (2007).mkv
Format                         : Matroska
Format version                 : Version 2
File size                      : 783 MiB
Duration                       : 43mn 32s
Overall bit rate               : 2 513 Kbps
Writing application            : Lavf52.64.2
Writing library                : Lavf52.64.2
Video
ID                             : 1
Format                         : AVC
Format/Info                    : Advanced Video Codec
Format profile                 : Main@L3.0
Format settings, CABAC         : Yes
Format settings, ReFrames      : 4 frames
Format settings, GOP           : M=4, N=24
Codec ID                       : V_MPEG4/ISO/AVC
Duration                       : 43mn 32s
Bit rate                       : 2 207 Kbps
Width                          : 720 pixels
Height                         : 576 pixels
Display aspect ratio           : 4:3
Original display aspect ratio  : 4:3
Frame rate mode                : Constant
Frame rate                     : 25.000 fps
Standard                       : PAL
Color space                    : YUV
Chroma subsampling             : 4:2:0
Bit depth                      : 8 bits
Scan type                      : MBAFF
Scan order                     : Top Field First
Bits/(Pixel*Frame)             : 0.213
Stream size                    : 687 MiB (88%)
Default                        : Yes
Forced                         : No
Color primaries                : BT.601 PAL
Transfer characteristics       : BT.470 System B, BT.470 System G
Matrix coefficients            : BT.601
Color range                    : Limited
Audio
ID                             : 2
Format                         : MPEG Audio
Format version                 : Version 1
Format profile                 : Layer 2
Codec ID                       : A_MPEG/L2
Codec ID/Hint                  : MP2
Duration                       : 43mn 32s
Bit rate mode                  : Constant
Bit rate                       : 256 Kbps
Channel(s)                     : 2 channels
Sampling rate                  : 48.0 KHz
Compression mode               : Lossy
Stream size                    : 79.7 MiB (10%)
Language                       : English
Default                        : Yes
Forced                         : No




   Похожие торренты   Торрент   Размер 
В этой теме нет новых непрочитанных сообщений. Брестская крепость (2007) SATRip

0 | 5

430.9 МБ

В этой теме нет новых непрочитанных сообщений. Крепость над Бугом / Брестская крепость (2011) SATRip от AND01AND

2 | 3

359.85 МБ

В этой теме нет новых непрочитанных сообщений. Брестская крепость (2010) Blu-Ray

76 | 42

22.32 ГБ

В этой теме нет новых непрочитанных сообщений. Брестская крепость (2010) Blu-Ray

9 | 7

23.12 ГБ

В этой теме нет новых непрочитанных сообщений. Брестская крепость (2010) Blu-Ray

6 | 9

22.46 ГБ

В этой теме нет новых непрочитанных сообщений. Брестская крепость (2010) HDRip-AVC

20 | 4

1.6 ГБ

В этой теме нет новых непрочитанных сообщений. Брестская крепость (2010) DVDRip

76 | 4

700.02 МБ




Вы не можете начинать темы
Вы не можете отвечать на сообщения
Вы не можете редактировать свои сообщения
Вы не можете удалять свои сообщения
Вы не можете добавлять вложения

Перейти:  
Для Мосгорсуда, Роскомнадзора и рекламодателей: mosgorsud-torrent[собачка]yandex.ru
 Вход
ppkBB3cker v.2 © 2008-2014 @ PPK
[ Time : 0.039s | 15 Queries | GZIP : Off ]

cron