img image001 image001 image001 image001 image001 image001 image001 image001 image001 image001 image001 image001 image001 image001 image001

Planets Sun Sun Sun
Статистика раздачи
Автор: Nickolas3434 | Размер: 729.78 МБ | Добавлен: 29 июн 2016
Раздают: 64    Качают: 1
Скачать торрент
Скачать торрент
Описание торрента

СообщениеДобавлено: 29 июн 2016 


Информация о фильме
Оригинальное название: Секретно. Сталину. Главная загадка Великой Отечественной
Год выпуска: 2016
Жанр: Военный, исторический фильм
Режиссер: Алексей Панков
О фильме: К 75-летию начала Великой Отечественной войны.Документальная лента, посвященная одному из самых трагических эпизодов в истории нашей страны, расскажет зрителям о сложной геополитической ситуации накануне войны. Аншлюс Австрии, раздел и ликвидация Чехословакии, нападение 1 сентября 1939 года на Польшу – все это события, предшествовавшие Великой Отечественной войне.
Документальная лента создана на основе рассекреченных документов из архива Службы внешней разведки Российской Федерации.
Выпущено: Россия, ВТРК
Продолжительность: 00:45:20
Перевод: не требуется
Файл
Качество: HDTVRip (AVC)
Видео: MPEG-4 AVC, 2025 Кбит/с, 1024x576
Аудио: АС3, 2 ch, 224 Кбит/с
General
Unique ID : 227507691731190337299550653538755322856 (0xAB28633A4D0B6997980D4359243EA3E8)
Complete name : C:Secret.Enigma.Staliny.2016.HDTVRip.AVC.ExKinoRay.mkv
Format : Matroska
Format version : Version 4 / Version 2
File size : 730 MiB
Duration : 45mn 20s
Overall bit rate : 2 250 Kbps
Movie name : Секретно. Сталину. Главная загадка 2016 ExKinoRay
Encoded date : UTC 2016-06-23 00:53:40
Writing application : mkvmerge v6.6.0 ('The Edge Of The In Between') built on Dec 1 2013 17:55:00
Writing library : libebml v1.3.0 + libmatroska v1.4.1
Video
ID : 1
Format : AVC
Format/Info : Advanced Video Codec
Format profile : High@L4.1
Format settings, CABAC : Yes
Format settings, ReFrames : 12 frames
Codec ID : V_MPEG4/ISO/AVC
Duration : 45mn 20s
Bit rate : 2 025 Kbps
Width : 1 024 pixels
Height : 576 pixels
Display aspect ratio : 16:9
Frame rate mode : Constant
Frame rate : 25.000 fps
Color space : YUV
Chroma subsampling : 4:2:0
Bit depth : 8 bits
Scan type : Progressive
Bits/(Pixel*Frame) : 0.137
Stream size : 643 MiB (88%)
Writing library : x264 core 142 r2431 ac76440
Encoding settings : cabac=1 / ref=12 / deblock=1:-2:-2 / analyse=0x3:0x113 / me=umh / subme=10 / psy=1 / psy_rd=1.05:0.10 / mixed_ref=1 / me_range=32 / chroma_me=1 / trellis=2 / 8x8dct=1 / cqm=0 / deadzone=21,11 / fast_pskip=0 / chroma_qp_offset=-3 / threads=12 / lookahead_threads=2 / sliced_threads=0 / nr=0 / decimate=0 / interlaced=0 / bluray_compat=0 / constrained_intra=0 / bframes=9 / b_pyramid=2 / b_adapt=2 / b_bias=0 / direct=3 / weightb=1 / open_gop=0 / weightp=2 / keyint=250 / keyint_min=25 / scenecut=40 / intra_refresh=0 / rc_lookahead=40 / rc=2pass / mbtree=0 / bitrate=2025 / ratetol=1.0 / qcomp=0.60 / qpmin=0 / qpmax=51 / qpstep=4 / cplxblur=20.0 / qblur=0.5 / vbv_maxrate=50000 / vbv_bufsize=62500 / nal_hrd=none / filler=0 / ip_ratio=1.40 / pb_ratio=1.30 / aq=1:1.00
Default : Yes
Forced : No
Audio
ID : 2
Format : AC-3
Format/Info : Audio Coding 3
Mode extension : CM (complete main)
Format settings, Endianness : Big
Codec ID : A_AC3
Duration : 45mn 20s
Bit rate mode : Constant
Bit rate : 224 Kbps
Channel(s) : 2 channels
Channel positions : Front: L R
Sampling rate : 48.0 KHz
Bit depth : 16 bits
Compression mode : Lossy
Stream size : 72.6 MiB (10%)
Language : Russian
Default : Yes
Forced : No


Релиз от:
Автор релиза:



   Похожие торренты   Торрент   Размер 
В этой теме нет новых непрочитанных сообщений. Секретно. Сталину. Главная загадка Великой Отечественной войны (2016) HDTVRip от GeneralFilm

534 | 14

584.06 МБ

В этой теме нет новых непрочитанных сообщений. Секретно. Сталину. Главная загадка Великой Отечественной войны (2016) HDTV 1080i от GeneralFilm

70 | 3

2.24 ГБ

В этой теме нет новых непрочитанных сообщений. Секретно. Сталину. Главная загадка Великой Отечественной (2016) HDTV 720p от GeneralFilm

193 | 1

656.98 МБ

В этой теме нет новых непрочитанных сообщений. Песни Великой отечественной войны и Песни о Великой отечественной войне () MP3

387 | 30

304.27 МБ

В этой теме нет новых непрочитанных сообщений. Рецепт Победы. Медицина в Годы Великой Отечественной Войны (2015) HDTVRip 720p

67 | 13

1.27 ГБ

В этой теме нет новых непрочитанных сообщений. Рецепт Победы. Медицина в годы Великой Отечественной войны (2015) HDTVRip от Generalfilm

189 | 8

552.28 МБ

В этой теме нет новых непрочитанных сообщений. Песни Великой Отечественной войны (1975) MP3

74 | 6

177.71 МБ




Вы не можете начинать темы
Вы не можете отвечать на сообщения
Вы не можете редактировать свои сообщения
Вы не можете удалять свои сообщения
Вы не можете добавлять вложения

Перейти:  
Для Мосгорсуда, Роскомнадзора и рекламодателей: mosgorsud-torrent[собачка]yandex.ru
 Вход
ppkBB3cker v.2 © 2008-2014 @ PPK
[ Time : 0.037s | 15 Queries | GZIP : Off ]

cron