img image001 image001 image001 image001 image001 image001 image001 image001 image001 image001 image001 image001 image001 image001 image001

Planets Sun Sun Sun
Статистика раздачи
Автор: Nickolas3434 | Размер: 1.71 ГБ | Добавлен: 30 июн 2016
Раздают: 27    Качают: 5
Скачать торрент
Скачать торрент
Описание торрента

СообщениеДобавлено: 30 июн 2016 


Информация о фильме
Название: Путешественник: 48 часов в...
Оригинальное название: Travel Man: 48 Hours in...
Год выхода: 2015
Жанр: документальный, комедия
Режиссер: Лео МакКри
В ролях: Ричард Айоади, Стивен Мэнган, Ноэль Филдинг, Крис О`Дауд
О фильме:
Актёр Ричард Айоади приглашает вас провести выходные в лучших городах мира. Его спутниками станут коллеги по цеху — британские актёры. Самое главное — увидеть всё самое интересное за 48 часов.

Страна: Великобритания
Продолжительность: ~00:23:00 серия
Перевод: Профессиональный двухголосый [Ozz]
Файл
Кодек: x264
Качество: HDTVRip 720p
Видео: 1280x720, 25,000 кадров/сек, 1982 Кбит/с
Аудио 1: AC3, 2 канала, 192 Кбит/сек [Русский]
Аудио 2: AC3, 2 канала, 192 Кбит/сек [Английский]
Субтитры: Русские
Семпл

Уникальный идентификатор : 190991850062266967169845325965943096230 (0x8FAFB13BADE601BBB220A18A28D7C3A6)
Полное имя : :Travel.Man.48.Hours.in.S01.720p.HDTVRip.Rus.Eng.OzzTravel.Man.48.Hours.in.S01E01.720p.HDTVRip.Rus.Eng.Ozz.mkv
Формат : Matroska
Версия формата : Version 4 / Version 2
Размер файла : 404 Мбайт
Продолжительность : 23 м.
Общий поток : 2414 Кбит/сек
Дата кодирования : UTC 2016-04-17 13:37:06
Программа кодирования : mkvmerge v6.3.0 ('You can't stop me!') built on Jun 28 2013 20:09:41
Библиотека кодирования : libebml v1.3.0 + libmatroska v1.4.0
Видео
Идентификатор : 1
Формат : AVC
Формат/Информация : Advanced Video Codec
Профиль формата : High@L4.1
Параметр CABAC формата : Да
Параметр ReFrames формата : 5 кадров
Идентификатор кодека : V_MPEG4/ISO/AVC
Продолжительность : 23 м.
Битрейт : 1982 Кбит/сек
Ширина : 1280 пикселей
Высота : 720 пикселей
Соотношение сторон : 16:9
Режим частоты кадров : Постоянный
Частота кадров : 25,000 кадров/сек
Цветовое пространство : YUV
Субдискретизация насыщенности : 4:2:0
Битовая глубина : 8 бит
Тип развёртки : Прогрессивная
Бит/(Пиксели*Кадры) : 0.086
Размер потока : 332 Мбайт (82%)
Библиотека кодирования : x264 core 146 r2538 121396c
Настройки программы : cabac=1 / ref=5 / deblock=1:0:0 / analyse=0x3:0x113 / me=umh / subme=8 / psy=1 / psy_rd=1.00:0.00 / mixed_ref=1 / me_range=16 / chroma_me=1 / trellis=1 / 8x8dct=1 / cqm=0 / deadzone=21,11 / fast_pskip=1 / chroma_qp_offset=-2 / threads=12 / lookahead_threads=2 / sliced_threads=0 / nr=0 / decimate=1 / interlaced=0 / bluray_compat=0 / constrained_intra=0 / bframes=3 / b_pyramid=2 / b_adapt=2 / b_bias=0 / direct=3 / weightb=1 / open_gop=0 / weightp=2 / keyint=250 / keyint_min=25 / scenecut=40 / intra_refresh=0 / rc_lookahead=50 / rc=crf / mbtree=1 / crf=21.0 / qcomp=0.60 / qpmin=0 / qpmax=69 / qpstep=4 / ip_ratio=1.40 / aq=1:1.00
Default : Да
Forced : Нет
Аудио #1
Идентификатор : 2
Формат : AC-3
Формат/Информация : Audio Coding 3
Расширение режима : CM (complete main)
Параметр Endianness формата : Big
Идентификатор кодека : A_AC3
Продолжительность : 23 м.
Вид битрейта : Постоянный
Битрейт : 192 Кбит/сек
Каналы : 2 канала
Расположение каналов : Front: L R
Частота : 48,0 КГц
Битовая глубина : 16 бит
Метод сжатия : С потерями
Размер потока : 32,2 Мбайт (8%)
Заголовок : DVO Ozz-tv
Язык : Russian
Default : Да
Forced : Нет
Аудио #2
Идентификатор : 3
Формат : AC-3
Формат/Информация : Audio Coding 3
Расширение режима : CM (complete main)
Параметр Endianness формата : Big
Идентификатор кодека : A_AC3
Продолжительность : 23 м.
Вид битрейта : Постоянный
Битрейт : 192 Кбит/сек
Каналы : 2 канала
Расположение каналов : Front: L R
Частота : 48,0 КГц
Битовая глубина : 16 бит
Метод сжатия : С потерями
Размер потока : 32,2 Мбайт (8%)
Язык : English
Default : Нет
Forced : Нет
Текст
Идентификатор : 4
Формат : UTF-8
Идентификатор кодека : S_TEXT/UTF8
Идентификатор кодека/Информация : UTF-8 Plain Text
Заголовок : Trotteville
Язык : Russian
Default : Нет
Forced : Нет

Релиз от: Ozz



   Похожие торренты   Торрент   Размер 
В этой теме нет новых непрочитанных сообщений. Семь часов до приговора / Seven Hours to Judgement (1988) HDTVRip 720p от MediaClub | P2

36 | 12

2.57 ГБ

В этой теме нет новых непрочитанных сообщений. 127 часов / 127 Hours (2010) BDRip 720p от leonardo 59

118 | 13

4.26 ГБ

В этой теме нет новых непрочитанных сообщений. 127 часов / 127 Hours (2010) BDRip 720p от HQ-ViDEO

39 | 5

5.18 ГБ

В этой теме нет новых непрочитанных сообщений. 127 часов / 127 Hours (2010) BDRip [720p] от HQRips

2 | 3

8.17 ГБ

В этой теме нет новых непрочитанных сообщений. Семь часов до приговора / Seven Hours to Judgement (1988) HDTVRip-AVC от MediaClub | P2

76 | 15

1.71 ГБ

В этой теме нет новых непрочитанных сообщений. Семь часов до приговора / Seven Hours to Judgement (1988) HDTVRip от MediaClub | P2

85 | 15

1.37 ГБ

В этой теме нет новых непрочитанных сообщений. 13 часов / 13 Hours / 13Hrs (2010) BDRip 720p от NOLIMITS-TEAM

187 | 31

2.23 ГБ




Вы не можете начинать темы
Вы не можете отвечать на сообщения
Вы не можете редактировать свои сообщения
Вы не можете удалять свои сообщения
Вы не можете добавлять вложения

Перейти:  
Для Мосгорсуда, Роскомнадзора и рекламодателей: mosgorsud-torrent[собачка]yandex.ru
 Вход
ppkBB3cker v.2 © 2008-2014 @ PPK
[ Time : 0.065s | 14 Queries | GZIP : Off ]

Торрент трекер RUTOR.IN, Не можете зайти на rutor.org? Какой новый адрес рутор? Какое зеркало рутор? Не работает rutor.org и зеркала? Тогда наш торрент специально для вас. Rutor.in неофициальное зеркало rutor. В случае если у Вас заблокирован rutor или вдруг Вы не можете на него зайти, то Вы без труда сможете скачать бесплатно и без рекламы последние новинки кино, игр, сериалов и прочего у нас, на Rutor.in. Не нужно использовать прокси, чтобы зайти на рутор, достаточно воспользоваться нашим ресурсом. Все новые фильмы, игры, сериалы, книги и музыка за 2013 и 2014 годы через торрент бесплатно. Скачивайте фильмы в хорошем качестве, игры для пк, xbox, playstation без регистрации. У нас вы найдете новые Зарубежные сериалы и Русские сериалы 2013, 2014, 2015 годов. Оставайтесь с нами, качайте любимые фильмы, игры, сериалы, книги и музыку.